Love Space Ship
SHANADOO

BASIC

Level: 2
BPM: 171
Notes: 156

1
口口口口 |----|
口口口口 |----|
口口口口 |----|
口口口口 |----|
2
口口口口 |----|
口口口口 |----|
口口口口 |----|
口口口口 |----|
3
口口口口 |----|
口口口口 |----|
口口口口 |----|
口口口口 |----|
4
口口口口 |①---|
口口口口 |----|
口口②① |②---|
口口口口 |----|
5
口口口口 |①---|
口口口口 |----|
①②口口 |②---|
口口口口 |----|
6
口口口口 |①---|
口口②① |----|
口口口口 |②---|
口口口口 |----|
7
口口口口 |①---|
①②口口 |----|
口口口口 |②---|
口口口口 |----|
8
口口口口 |①---|
口口口口 |----|
口口②① |②---|
口口口口 |----|
9
口口口口 |①---|
口口口口 |----|
①②口口 |②---|
口口口口 |----|
10
口口口口 |①---|
口口②① |----|
口口口口 |②---|
口口口口 |----|
11
口口口口 |①---|
①②口口 |----|
口口口口 |②---|
口口口口 |----|
12
口口口口 |----|
口口口口 |----|
口口口口 |①---|
口口①口 |----|
13
口口口口 |----|
口口口口 |----|
口口口口 |①---|
口①口口 |----|
14
口口口口 |----|
口口口口 |----|
口口①口 |①---|
口口口口 |----|
15
口口口口 |----|
口口口口 |----|
口①口口 |①---|
口口口口 |----|
16
口口口口 |----|
口口口① |----|
口口口口 |①---|
口口口口 |----|
17
口口口口 |----|
①口口口 |----|
口口口口 |①---|
口口口口 |----|
18
口口①口 |----|
口口口口 |----|
口口口口 |①---|
口口口口 |----|
19
口①口口 |----|
口口口口 |----|
口口口口 |①---|
口口口口 |----|
20
口口口口 |----|
口口口口 |----|
口口口口 |①---|
口口①口 |----|
21
口口口口 |①---|
口口口口 |----|
口口②口 |②---|
口①口口 |----|
22
口口口口 |①---|
口口口② |----|
口①口口 |②---|
口口口口 |----|
23
口口口口 |①---|
①②②口 |----|
口口口口 |②---|
口口口口 |----|
24
口口口口 |①---|
口口口口 |----|
口口口口 |②---|
口②①口 |----|
25
口口口口 |①---|
口口口口 |----|
口②①口 |②---|
口口口口 |----|
26
口口口口 |①---|
②口口① |----|
口口口口 |②---|
口口口口 |----|
27
口①①口 |①---|
口口口口 |----|
口口口口 |----|
口口口口 |----|
28
口口口口 |①---|
口口口口 |----|
①口口① |----|
口口口口 |----|
29
口口口口 |①---|
口①①口 |----|
口口口口 |----|
口口口口 |----|
30
口口口① |①---|
口口口② |----|
口口口口 |②---|
口口口口 |----|
31
口口口口 |①---|
口口口口 |----|
口口口① |②---|
口口口② |----|
32
口口口口 |①---|
口口口口 |----|
口①①口 |----|
口口口口 |----|
33
口口口口 |①---|
②口口口 |----|
①口口口 |②---|
口口口口 |----|
34
①口口口 |①---|
口口口口 |----|
口口口口 |----|
口口口口 |----|
35
口口④口 |①---|
口③口口 |②---|
口口②口 |③---|
口①口口 |④---|
36
口口口口 |----|
口口口口 |①---|
口口口口 |----|
口①②口 |②---|
37
口口口口 |----|
口口口口 |①---|
①口口② |----|
口口口口 |②---|
38
口口口口 |----|
①口口② |①---|
口口口口 |----|
口口口口 |②---|
39
口口口口 |----|
②口口② |①---|
口①①口 |----|
口口口口 |②---|
40
口口口口 |----|
口口口口 |①---|
口口口口 |----|
口①②口 |②---|
41
口口口口 |----|
口口口口 |①---|
口①②口 |----|
口口口口 |②---|
42
口口口口 |----|
①口口② |①---|
口口口口 |----|
口口口口 |②---|
43
口口口口 |----|
口②②口 |①---|
口①①口 |----|
口口口口 |②---|
44
口口口口 |----|
口口口口 |①---|
口口口口 |----|
口①②口 |②---|
45
口口口口 |----|
口口口口 |①---|
①口口② |----|
口口口口 |②---|
46
口口口口 |----|
①口口② |①---|
口口口口 |----|
口口口口 |②---|
47
口口口口 |----|
②口口② |①---|
口①①口 |----|
口口口口 |②---|
48
口口口口 |----|
口口②口 |①---|
口口口① |----|
口口口口 |②---|
49
口口口① |----|
口口口口 |①---|
②口口口 |----|
口口口口 |②---|
50
②口口口 |----|
口①口口 |①---|
口口口口 |----|
口口口口 |②---|
51
②口口② |----|
①口口① |①---|
口口口口 |----|
口口口口 |②---|
52
口口口口 |----|
口口口口 |①---|
口口口口 |----|
口①②口 |②---|
53
口口口口 |----|
口口口口 |①---|
①口口② |----|
口口口口 |②---|
54
口口口口 |----|
①口口② |①---|
口口口口 |----|
口口口口 |②---|
55
口口口口 |----|
②口口② |①---|
口①①口 |----|
口口口口 |②---|
56
口口口口 |----|
口口口口 |①---|
口口口口 |----|
口①②口 |②---|
57
口口口口 |----|
口口口口 |①---|
口①②口 |----|
口口口口 |②---|
58
口口口口 |----|
①口口② |①---|
口口口口 |----|
口口口口 |②---|
59
口口口口 |----|
口②②口 |①---|
口①①口 |----|
口口口口 |②---|
60
口口口口 |----|
口口口口 |①---|
口口口口 |----|
口①②口 |②---|
61
口口口口 |----|
口口口口 |①---|
①口口② |----|
口口口口 |②---|
62
口口口口 |----|
①口口② |①---|
口口口口 |----|
口口口口 |②---|
63
口口口口 |----|
②口口② |①---|
口①①口 |----|
口口口口 |②---|
64
口口口口 |----|
口口②口 |①---|
口口口① |----|
口口口口 |②---|
65
口口口① |----|
口口口口 |①---|
②口口口 |----|
口口口口 |②---|
66
②口口口 |----|
口①口口 |①---|
口口口口 |----|
口口口口 |②---|
67
②口口② |----|
口①①口 |①---|
口口口口 |----|
口口口口 |②---|
68
口口口口 |----|
口口口口 |----|
口口①口 |①---|
口口口口 |----|
69
口口口口 |①---|
口口口口 |----|
①②口口 |②---|
口口口口 |----|
70
口口口口 |①---|
口口②① |----|
口口口口 |②---|
口口口口 |----|
71
①口口口 |①---|
②口口口 |②---|
③口口口 |③---|
④口口口 |④---|
72
口口口口 |①---|
口口口口 |----|
口口②① |②---|
口口口口 |----|
73
口口口口 |①---|
口口口口 |----|
①②口口 |②---|
口口口口 |----|
74
口口口口 |①---|
口口②① |----|
口口口口 |②---|
口口口口 |----|
75
口口口① |①---|
口口口② |②---|
口口口③ |③---|
口口口④ |④---|


不确定度: 0

最終更新:2013年03月23日 13:43