Love Space Ship
SHANADOO

ADVANCED

Level: 4
BPM: 171
Notes: 307

1
口口口口 |----|
口口口口 |----|
口口口口 |----|
口口口口 |----|
2
口口口口 |----|
口口口口 |----|
口口口口 |----|
口口口口 |----|
3
口口口口 |----|
口口口口 |----|
口口口口 |----|
口口口口 |----|
4
口口④④ |①---|
口口口③ |②---|
口口口② |③---|
口口口① |④---|
5
④④口口 |①---|
③口口口 |②---|
②口口口 |③---|
①口口口 |④---|
6
口口④④ |①---|
口口③口 |②---|
口口②口 |③---|
口口①口 |④---|
7
口④④口 |①---|
口③口口 |②---|
口②口口 |③---|
口①口口 |④---|
8
口口④④ |①---|
口口口③ |②---|
口口口② |③---|
口口口① |④---|
9
④④口口 |①---|
③口口口 |②---|
②口口口 |③---|
①口口口 |④---|
10
口口④④ |①---|
口口③口 |②---|
口口②口 |③---|
口口①口 |④---|
11
口④④口 |①---|
口③口口 |②---|
口②口口 |③---|
口①口口 |④---|
12
①口口口 |----|
口口口② |①---|
口口口口 |②---|
口口口口 |----|
13
口口口口 |①---|
口口口口 |--②-|
①口口口 |----|
口口口② |----|
14
口口口口 |----|
口口口口 |①---|
②口口② |②---|
口①①口 |----|
15
口②②口 |①---|
口①①口 |--②-|
口口口口 |----|
口口口口 |----|
16
口口口① |----|
②口口口 |①---|
口口口口 |②---|
口口口口 |----|
17
口口口口 |①---|
口口口口 |--②-|
口口口① |----|
②口口口 |----|
18
口口口口 |----|
口口口口 |①---|
②口口② |②---|
口①①口 |----|
19
②口口② |①---|
口①①口 |--②-|
口口口口 |----|
口口口口 |----|
20
口口口口 |①---|
口口③口 |----|
口口②口 |②-③-|
①口口① |----|
21
①口口① |①---|
口②口口 |----|
口③口口 |②-③-|
口口口口 |----|
22
口口口口 |①---|
口口口③ |----|
口口口② |②-③-|
①口口① |----|
23
①口口① |①---|
②口口口 |----|
③口口口 |②-③-|
口口口口 |----|
24
口口口口 |①---|
口口③口 |----|
口口②口 |②-③-|
①口口① |----|
25
①口口① |①---|
口②口口 |----|
口③口口 |②-③-|
口口口口 |----|
26
口口口口 |①---|
口口口③ |----|
口口口② |②-③-|
①口口① |----|
27
①口口① |①---|
口②②口 |----|
口口口口 |②---|
口③③口 |③---|
28
③口口口 |----|
口②口口 |①---|
①口口口 |②---|
口口口口 |③---|
29
口口口③ |----|
口口②口 |①---|
口口口① |②---|
口口口口 |③---|
30
口口口口 |①---|
口口口口 |----|
口②②口 |②---|
①口口① |----|
31
②口口② |①---|
①口口① |----|
口口口口 |②---|
口口口口 |----|
32
③口口口 |----|
口②口口 |①---|
①口口口 |②---|
口口口口 |③---|
33
口口口③ |----|
口口②口 |①---|
口口口① |②---|
口口口口 |③---|
34
口口口口 |①---|
①口口① |----|
口口口口 |----|
口口口口 |----|
35
④④④④ |①---|
口①①口 |②---|
口②②口 |③---|
③口口③ |④---|
36
口口口口 |----|
口③口口 |①---|
②口口口 |②---|
口①口口 |③---|
37
口口口口 |----|
口口③口 |①---|
口口口② |②---|
口口①口 |③---|
38
口口③口 |----|
口②口口 |①---|
口口①口 |②---|
口口口口 |③---|
39
口口口口 |----|
③口口③ |①---|
②口口② |②---|
①口口① |③---|
40
口口口口 |----|
口③口口 |①---|
②口口口 |②---|
口①口口 |③---|
41
口口口口 |----|
口口③口 |①---|
口口口② |②---|
口口①口 |③---|
42
口口①口 |----|
口②口口 |①---|
口口③口 |②---|
口口口口 |③---|
43
口口口口 |①---|
④口口④ |②---|
③口口③ |③---|
②①口② |④---|
44
口口口口 |----|
口③口口 |①---|
②口口口 |②---|
口①口口 |③---|
45
口口口口 |----|
口口③口 |①---|
口口口② |②---|
口口①口 |③---|
46
口口③口 |----|
口②口口 |①---|
口口①口 |②---|
口口口口 |③---|
47
口口口口 |----|
③口口③ |①---|
②口口② |②---|
①口口① |③---|
48
口口口口 |----|
口口口③ |①---|
②口口口 |②---|
口口口① |③---|
49
①口口口 |①---|
口口口口 |----|
口口口口 |②---|
②口口② |----|
50
③口口③ |①---|
口②②口 |--②-|
口①①口 |----|
口口口口 |③---|
51
④④④④ |①---|
③口口③ |②---|
②口口② |③---|
①口口① |④---|
52
口口口口 |----|
口③口口 |①---|
②口口口 |②---|
口①口口 |③---|
53
口口口口 |----|
口口③口 |①---|
口口口② |②---|
口口①口 |③---|
54
口口①口 |----|
口②口口 |①---|
口口③口 |②---|
口口口口 |③---|
55
口口口口 |①---|
④口口④ |②---|
③口口③ |③---|
②①口② |④---|
56
口口口口 |----|
口③口口 |①---|
②口口口 |②---|
口①口口 |③---|
57
口口口口 |----|
口口③口 |①---|
口口口② |②---|
口口①口 |③---|
58
口口①口 |----|
口②口口 |①---|
口口③口 |②---|
口口口口 |③---|
59
口口口口 |①---|
④口口④ |②---|
③口口③ |③---|
②①口② |④---|
60
口口口口 |----|
口③口口 |①---|
②口口口 |②---|
口①口口 |③---|
61
口口口口 |----|
口口③口 |①---|
口口口② |②---|
口口①口 |③---|
62
口口③口 |----|
口②口口 |①---|
口口①口 |②---|
口口口口 |③---|
63
口口口口 |----|
③口口③ |①---|
②口口② |②---|
①口口① |③---|
64
口口口口 |----|
口口口③ |①---|
②口口口 |②---|
口口口① |③---|
65
①口口口 |①---|
口②②口 |--②-|
口口口口 |----|
口③③口 |③---|
66
③口口③ |①---|
口②②口 |--②-|
口①①口 |----|
口口口口 |③---|
67
④④④④ |①---|
③口口③ |②---|
②口口② |③---|
①口口① |④---|
68
口口④④ |①---|
口口口③ |②---|
口口口② |③---|
口口口① |④---|
69
④④口口 |①---|
③口口口 |②---|
②口口口 |③---|
①口口口 |④---|
70
口口④④ |①---|
口口③口 |②---|
口口②口 |③---|
口口①口 |④---|
71
口④口口 |①---|
③口口口 |②---|
口②口口 |③---|
①口口口 |④---|
72
口口④④ |①---|
口口口③ |②---|
口口口② |③---|
口口口① |④---|
73
④④口口 |①---|
③口口口 |②---|
②口口口 |③---|
①口口口 |④---|
74
口口④④ |①---|
口口③口 |②---|
口口②口 |③---|
口口①口 |④---|
75
口④口口 |①---|
③口口口 |②---|
口②口口 |③---|
①口口口 |④---|


不确定度: 0

最終更新:2013年03月23日 13:42