TWINKLE♥HEART
jun

ADVANCED

Level: 7
BPM: 185
Notes: 527

1
口口口口 |----|
口口口口 |----|
口口口口 |----|
口口口口 |----|
2
①①口口 |①---|
口③口口 |②-③-|
口口口口
口口②口

口⑤⑤口
口口口口
口口口口 |--④-|
口口口④ |--⑤-|
3
口口口口 |--①-|
⑤口①⑤ |②-③-|
口②口口 |④---|
口④③口 |⑤---|
4
口①①口 |①---|
口口口口 |②-③-|
③口⑤② |--④-|
⑥⑥④口 |⑤-⑥-|
5
口③口口 |--①-|
①④④② |②-③-|
口口口口 |④---|
⑤口口⑤ |⑤---|
6
口口①① |①---|
口口③口 |②-③-|
口口口口
口②口口

口⑤⑤口
口口口口
口口口口 |--④-|
④口口口 |--⑤-|
7
口口口口 |--①-|
⑤①口⑤ |②-③-|
口口②口 |④---|
口③④口 |⑤---|
8
口①①口 |①---|
口口口口 |②-③-|
②⑤口③ |--④-|
口④⑥⑥ |⑤-⑥-|
9
口口③口 |--①-|
②④④① |②-③-|
口口口口 |④---|
⑤口口⑥ |⑤-⑥-|
10
口②口口 |①---|
口口③口 |②-③-|
口①①口
口口口口

口口④④
⑤口口口
口⑤口口 |--④-|
口口口口 |--⑤-|
11
口口口口 |----|
口口口口 |----|
①②③口 |--①-|
口口口口 |②-③-|
12
口口口口 |①---|
口口口③ |②-③-|
⑤口口口 |--④-|
①①④② |--⑤-|
13
口口口口 |--①-|
口口口② |--②-|
口①④口 |③---|
口口③③ |--④-|
14
口②口口 |①---|
口口③口 |②-③-|
口①口口
口口口口

口口④④
⑤口口口
口⑤口口 |--④-|
口口口口 |--⑤-|
15
口口口口 |----|
口口口口 |----|
①②③口 |--①-|
口口口口 |②-③-|
16
①①口② |①---|
口口③口 |----|
口口口④ |--②-|
口口口口 |③-④-|
17
口口口口 |①---|
口②口口 |--②-|
口口口口
①①口口

口口口口
口口口口
口口口口 |③---|
④口③口 |--④-|
18
口口②口 |①---|
口③口口 |②-③-|
口①①口
口口口口

④④口口
口口口⑤
口口⑤口 |--④-|
口口口口 |--⑤-|
19
口口口口 |----|
口口口口 |----|
口③②① |--①-|
口口口口 |②-③-|
20
口口口口 |①---|
③口口口 |②-③-|
口口口⑤ |--④-|
②④①① |--⑤-|
21
口口口口 |--①-|
②口口口 |--②-|
口⑤①口 |③---|
③③④口 |④-⑤-|
22
口口②口 |①---|
口③口口 |②-③-|
口口①口
口口口口

④④口口
口口口⑤
口口⑤口 |--④-|
口口口口 |--⑤-|
23
口口口口 |----|
口口口口 |----|
口③②① |--①-|
口口口口 |②-③-|
24
②口①① |①---|
口③口口 |----|
④口口口 |--②-|
口口口口 |③-④-|
25
④③②④ |①---|
②口口③ |②---|
口口口口 |③---|
口口①① |④---|
26
口②②口 |①---|
口口口口 |----|
口①①口 |----|
口①①口 |②---|
27
口口口口 |①---|
②①③④ |②---|
口口口口 |③---|
①②④③ |④---|
28
口②②口 |①---|
口口口口 |----|
口①①口 |----|
口口口口 |②---|
29
口口口口 |①---|
④②①③ |②---|
口口口口 |③---|
①③④② |④---|
30
口②②口 |①---|
口口口口 |----|
口①①口 |----|
口口口口 |②---|
31
②口口① |①---|
口③③口 |②---|
①口口② |③---|
口④⑤口 |④-⑤-|
32
口口口口 |①---|
②口口② |--②-|
口①①口 |③---|
③口口③ |----|
33
①①①① |----|
③口口③ |--①-|
口②②口 |--②-|
口④④口 |③-④-|
34
②③④④ |①---|
口①①口 |--②-|
口口口口 |③---|
口口口口 |--④-|
35
口口口口 |--①-|
口①①口 |--②-|
②②口⑤ |③---|
④口③③ |④-⑤-|
36
口⑤②口 |①---|
⑤①①口 |②-③-|
口③口口 |--④-|
口④④口 |--⑤-|
37
口口①② |--①-|
口①②口 |--②-|
③③口口 |③---|
口口口口 |----|
38
口④④口 |①-②-|
口口口③ |③-④-|
口口②口 |----|
口⑥⑤① |⑤-⑥-|
39
⑤④④口 |①-②-|
③口口⑥ |③-④-|
⑦②口口 |--⑤-|
①口口口 |⑥-⑦-|
40
口口口口 |①---|
口①①⑤ |--②-|
④口口③ |--③-|
口②②口 |④-⑤-|
41
口①①口 |①---|
口③②口 |--②-|
口②③口 |③---|
口口口口 |----|
42
④①①口 |①---|
③④口② |--②-|
②口口③ |③---|
口口口口 |--④-|
43
口口口① |--①-|
口口①口 |--②-|
口④⑤口 |--③-|
③②②口 |④-⑤-|
44
口④⑤口 |①---|
③⑤④② |②-③-|
口口口口 |--④-|
口口口① |--⑤-|
45
①口口① |--①-|
口口口口 |--②-|
②口口② |--③-|
③⑤口④ |④-⑤-|
46
②②口口 |①---|
口口③口 |----|
口口口④ |②---|
口口①口 |③-④-|
47
口口③② |--①-|
口口口① |②-③-|
④口口口 |--④-|
口⑤口口 |--⑤-|
48
口③③口 |①---|
③②②③ |--②-|
口③③口 |③---|
口口①口 |----|
49
口口口口 |①---|
口④④口 |②---|
①口口② |③---|
②③③① |④---|
50
口③②① |----|
口口口口 |①---|
口③②① |②---|
口口口口 |③---|
51
①口口口 |①---|
③⑥⑥② |②-③-|
①⑤④口 |--④-|
口口口口 |⑤-⑥-|
52
口③②① |----|
口口口口 |①---|
口③②① |②---|
口口口口 |③---|
53
①口口口 |①---|
口②②口 |②-③-|
①口口口 |----|
口③③口 |----|
54
②①口口 |①---|
①②口口 |②---|
口③③口 |----|
口口口口 |③---|
55
口口①② |①---|
口口②① |②---|
口③③口 |----|
口口口口 |③---|
56
口①②口 |①---|
①口口② |②---|
口③③口 |----|
口口口口 |③---|
57
①④④① |①---|
口①①口 |②---|
③口口② |③---|
口口口口 |④---|
58
口口口口 |----|
口③②① |①---|
口口口口 |②---|
口③②① |③---|
59
口⑥⑥口 |①---|
①⑤④口 |②-③-|
③口口② |--④-|
①口口口 |⑤-⑥-|
60
口口口口 |----|
①口口② |①-②-|
口③③口 |③---|
口④口口 |④---|
61
口③③口 |①---|
口②口④ |②-③-|
⑤口口口 |--④-|
口口①口 |--⑤-|
62
口口口② |①---|
口口口口 |----|
口口口口 |--②-|
③①①口 |--③-|
63
口⑤⑤口 |--①-|
①口③口 |②-③-|
口②口④ |④---|
口口口口 |⑤---|
64
口口口口 |①---|
①口口② |----|
口口口口 |②---|
口②①口 |----|
65
⑤口口⑥ |①---|
③①②④ |②-③-|
口②①口 |--④-|
口口口口 |⑤-⑥-|
66
口①①口 |①---|
口口④口 |--②-|
②④口② |③---|
③口口③ |--④-|
67
口口口口 |--①-|
口①口口 |--②-|
口口①口 |③---|
③②②③ |----|
68
②①①② |①---|
①②②① |--②-|
③口口口 |----|
③口口口 |--③-|
69
口口口口 |--①-|
口②③口 |--②-|
口口口① |③---|
口③②① |----|
70
口④④口 |①-②-|
口口口③ |③-④-|
口口②口 |----|
口⑥⑤① |⑤-⑥-|
71
⑤④④口 |①-②-|
③口口⑥ |③-④-|
⑦②口口 |--⑤-|
①口口口 |⑥-⑦-|
72
口口口口 |①---|
口①①⑤ |--②-|
④口口③ |--③-|
口②②口 |④-⑤-|
73
口①①口 |①---|
口③②口 |--②-|
口②③口 |③---|
口④④口 |④---|
74
④①①口 |①---|
③④口② |--②-|
②口口③ |③---|
口口口口 |--④-|
75
口口口① |--①-|
口口①口 |--②-|
口④⑤口 |--③-|
③②②口 |④-⑤-|
76
口④⑤口 |①---|
③⑤④② |②-③-|
口口口口 |--④-|
口口口① |--⑤-|
77
①口口① |--①-|
口口口口 |--②-|
②口口② |--③-|
③⑤口④ |④-⑤-|
78
②②口口 |①---|
口口③口 |----|
口口口④ |②---|
口口①口 |③-④-|
79
口口③② |--①-|
口口口① |②-③-|
④口口口 |--④-|
口⑤口口 |--⑤-|
80
口③③口 |①---|
③②②③ |--②-|
口③③口 |③---|
口口①口 |----|
81
④口口④ |①---|
口④④口 |②---|
①口口② |③---|
②③③① |④---|


不确定度: 0

最終更新:2012年11月07日 23:45