TWINKLE♥HEART
jun

EXTREME

Level: 9
BPM: 185
Notes: 722

1
口口口口 |----|
口口口口 |----|
口口口口 |----|
口口口口 |----|
2
⑤①口口 |①---|
③口③② |②-③-|
口④口口 |--④-|
②①④⑤ |--⑤-|
3
⑤口③① |--①-|
口⑤口口 |②-③-|
口④④口 |④---|
②口口⑤ |⑤---|
4
口①⑤口 |①---|
③口口② |②-③-|
③⑥④② |--④-|
⑥①口口 |⑤-⑥-|
5
口口口③ |--①-|
口⑤②口 |②-③-|
⑤口④⑤ |④---|
口①⑤④ |⑤---|
6
⑤①口口 |①---|
③口③② |②-③-|
口④口口 |--④-|
②①④⑤ |--⑤-|
7
⑤口③① |--①-|
口⑤口口 |②-③-|
口④④口 |④---|
②口口⑤ |⑤---|
8
口①⑤口 |①---|
③口口② |②-③-|
③⑥④② |--④-|
⑥①口口 |⑤-⑥-|
9
④口口③ |--①-|
口④②口 |②-③-|
⑤⑥④口 |④---|
口①口④ |⑤-⑥-|
10
④⑤⑤④ |①---|
口③②① |②-③-|
口口③① |--④-|
口口口口 |--⑤-|
11
⑥口⑦⑧ |①-②-|
⑦口⑤⑥ |③-④-|
⑧口③④ |⑤-⑥-|
口口①② |⑦-⑧-|
12
口③口口 |①---|
口④③口 |②-③-|
口⑤④口 |--④-|
①①⑤② |--⑤-|
13
②③③② |--①-|
③口口③ |--②-|
④⑤⑥⑦ |③---|
口①口口 |④⑤⑥⑦|
14
口口④口 |①---|
口①①④ |②-③-|
⑤口口口 |--④-|
③⑤口② |--⑤-|
15
口口⑦⑧ |①-②-|
⑧口⑤⑥ |③-④-|
⑦口③④ |⑤-⑥-|
⑥口①② |⑦-⑧-|
16
①①③口 |①---|
口口口口 |----|
④口②② |②-③-|
口⑤①① |④-⑤-|
17
②口口口 |①---|
口②口口 |②---|
口①口口
①口口口

口口③③
口口口口
口④口口 |③---|
口口③③ |--④-|
18
④⑤⑤④ |①---|
①③②① |②-③-|
①口③① |--④-|
口口口口 |--⑤-|
19
⑥口⑦⑧ |①-②-|
⑦口⑤⑥ |③-④-|
⑧口③④ |⑤-⑥-|
口口①② |⑦-⑧-|
20
口③口口 |①---|
口④③口 |②-③-|
口⑤④口 |--④-|
①①⑤② |--⑤-|
21
①②②① |--①-|
④③③⑤ |--②-|
③口口③ |③---|
口口口口 |④-⑤-|
22
④⑤⑤④ |①---|
口④④口 |②-③-|
口①①口 |--④-|
③口口② |--⑤-|
23
口口⑦⑧ |①-②-|
⑧口⑤⑥ |③-④-|
⑦口③④ |⑤-⑥-|
⑥口①② |⑦-⑧-|
24
①①⑦⑧ |①-②-|
口⑥⑤⑥ |③-④-|
口⑦③④ |⑤-⑥-|
口⑧①② |⑦-⑧-|
25
口③口④ |①---|
口口口口 |②---|
①④口② |③---|
①口③② |④---|
26
⑦口口口 |①-②-|
②④⑥⑧ |③-④-|
口口口口 |⑤-⑥-|
①③⑤⑦ |⑦-⑧-|
27
口①③⑤ |①-②-|
②④⑥⑧ |③-④-|
口⑦口口 |⑤-⑥-|
①③⑤⑦ |⑦-⑧-|
28
⑦口口口 |①-②-|
②④⑥⑧ |③-④-|
口口①口 |⑤-⑥-|
①③⑤⑦ |⑦-⑧-|
29
口①③⑤ |①-②-|
②④⑥⑧ |③-④-|
口⑦口口 |⑤-⑥-|
①③⑤⑦ |⑦-⑧-|
30
④口口口 |①---|
口口口口 |②---|
口口①口 |③---|
①②③④ |④---|
31
口①②③ |①---|
①②③④ |②---|
口④⑤口 |③---|
口口口口 |④-⑤-|
32
①口口口 |①---|
口口口口 |--②-|
③口口② |③---|
口③②① |----|
33
②①①③ |①---|
①④⑤① |--②-|
④口口⑤ |--③-|
③口口② |④-⑤-|
34
②①①口 |①---|
口口口口 |--②-|
口口口口
口口口②

口口④口
③口口④
口口口口 |③---|
口口③口 |--④-|
35
口口口① |--①-|
口口①口 |--②-|
③②口④ |③---|
②③口⑤ |④-⑤-|
36
①⑤②口 |①---|
口①③口 |②-③-|
口④口口 |--④-|
④⑤口口 |--⑤-|
37
口口①口 |--①-|
②口口③ |--②-|
②口口③ |③---|
口口①口 |----|
38
口④口口 |①-②-|
④②①口 |③-④-|
口③口口 |----|
⑤⑥口口 |⑤-⑥-|
39
口口口④ |①-②-|
⑦口④口 |③-④-|
⑥口①② |--⑤-|
⑤口口③ |⑥-⑦-|
40
①⑤口口 |①---|
口口④① |--②-|
口③口① |--③-|
口②②口 |④-⑤-|
41
③口②① |①---|
口口口口 |--②-|
口口口口 |③---|
①口口③ |----|
42
④①③口 |①---|
口②口口 |--②-|
口口②口 |③---|
口③①④ |--④-|
43
口②口③ |--①-|
⑤口①④ |--②-|
④①口⑤ |--③-|
③口②口 |④-⑤-|
44
口口①口 |①---|
口②③口 |②-③-|
口③②口
口①口口

口④⑤口
⑤口口⑤
口口口口 |--④-|
口口④口 |--⑤-|
45
②口口口 |--①-|
口⑤口口 |--②-|
①④③① |--③-|
口①口② |④-⑤-|
46
口①口② |①---|
①口口口 |----|
③口④① |②---|
口口①口 |③-④-|
47
①口④口 |--①-|
口口口口 |②-③-|
口口口② |--④-|
③⑤口口 |--⑤-|
48
口③③口 |①---|
③②②③ |--②-|
口③③口 |③---|
口口口① |----|
49
①口口② |①---|
④口口④ |②---|
①口口② |③---|
③④④③ |④---|
50
②①①④ |①---|
口②④口 |②---|
口口③口 |③---|
口口口③ |④---|
51
口③③口 |①---|
④⑥⑥⑤ |②-③-|
口①口口 |--④-|
①口②口 |⑤-⑥-|
52
口口口口 |----|
口口口口 |①---|
③①②口 |②---|
①③口② |③---|
53
②口口② |①---|
口③③口 |②-③-|
口口口① |----|
口口①口 |----|
54
口⑦①③ |①-②-|
②④⑧⑥ |③-④-|
口口口口 |⑤-⑥-|
③①⑤⑦ |⑦-⑧-|
55
口⑦①③ |①-②-|
②④⑧⑥ |③-④-|
口口口口 |⑤-⑥-|
③①⑤⑦ |⑦-⑧-|
56
口⑦①③ |①-②-|
②④⑧⑥ |③-④-|
口口口口 |⑤-⑥-|
③①⑤⑦ |⑦-⑧-|
57
口④①④ |①---|
④②④③ |②---|
②口③口 |③---|
口口口口 |④---|
58
②口口④ |①---|
口②④口 |②---|
口①③口 |③---|
口口①③ |④---|
59
⑥③③⑥ |①---|
口口口⑤ |②-③-|
④①口口 |--④-|
①口②口 |⑤-⑥-|
60
口口口口 |----|
口口口口 |①-②-|
④②③口 |③---|
①④口③ |④---|
61
②④④② |①---|
口③③⑤ |②-③-|
口口口① |--④-|
⑤口①口 |--⑤-|
62
口口口口 |①---|
①口口口 |②-③-|
口②③口
口口口①

口口口口
口口口口
口口口口 |--④-|
⑤④④⑤ |--⑤-|
63
①②⑤⑤ |--①-|
⑤⑤③④ |②-③-|
口口口口 |④---|
口口口口 |⑤---|
64
口口口口 |①---|
口口口口 |----|
①②②① |②---|
①①①① |----|
65
②①①③ |①---|
①④⑤① |--②-|
④口口⑤ |--③-|
③口口② |④-⑤-|
66
④①①口 |①---|
③④④③ |--②-|
口②②④ |③---|
③②②③ |--④-|
67
口①①口 |--①-|
口口口② |--②-|
④②②④ |③---|
②③③口 |④---|
68
①③③① |①---|
口①①口 |--②-|
口②②口 |----|
②口口② |--③-|
69
口口口口 |--①-|
②①①② |--②-|
①口口① |③---|
③②②③ |----|
70
口④口口 |①-②-|
④②①口 |③-④-|
口③口口 |----|
⑤⑥口口 |⑤-⑥-|
71
口口口④ |①-②-|
⑦口④口 |③-④-|
⑥口①② |--⑤-|
⑤口口③ |⑥-⑦-|
72
①⑤口口 |①---|
口口④① |--②-|
口③口① |--③-|
口②②口 |④-⑤-|
73
③口②① |①---|
④口④口 |--②-|
口④口④ |③---|
①口口③ |④---|
74
④①③口 |①---|
口②口口 |--②-|
口口②口 |③---|
口③①④ |--④-|
75
口②口③ |--①-|
⑤口①④ |--②-|
④①口⑤ |--③-|
③口②口 |④-⑤-|
76
口口①口 |①---|
口②③口 |②-③-|
口③②口
口①口口

口④⑤口
⑤口口⑤
口口口口 |--④-|
口口④口 |--⑤-|
77
②口口口 |--①-|
口⑤口口 |--②-|
①④③① |--③-|
口①口② |④-⑤-|
78
口①口② |①---|
①口口口 |----|
③口④① |②---|
口口①口 |③-④-|
79
①口④口 |--①-|
口口口口 |②-③-|
口口口② |--④-|
③⑤口口 |--⑤-|
80
口③③口 |①---|
③②②③ |--②-|
口③③口 |③---|
口口口① |----|
81
①口口② |①---|
④口口④ |②---|
①④④② |③---|
③④④③ |④---|


不确定度: 0

最終更新:2012年11月07日 23:43