幸せのかたち
あさき

BASIC

Level: 3
BPM: 119
Notes: 190

实际BPM: 238
1
口口口口 |----|
口口口口 |----|
口口口口 |----|
口口口口 |----|
2
口口口口 |①---|
口①口口 |----|
口口口口 |----|
口口口口 |----|
3
口口口口 |①---|
口口①口 |----|
口口口口 |----|
口口口口 |----|
4
口口口口 |①---|
口口口口 |----|
口①口口 |----|
口口口口 |----|
5
口口口口 |①---|
口口口口 |----|
口口①口 |----|
口口口口 |----|
6
口口口口 |①---|
口①①口 |----|
口口口口 |----|
口口口口 |----|
7
口口口口 |①---|
口口口口 |----|
口①①口 |----|
口口口口 |----|
8
口口口口 |①---|
口①①口 |----|
口口口口 |----|
口口口口 |----|
9
口口口口 |①---|
口口口口 |----|
口②口口 |②---|
口口①口 |----|
10
口口口口 |①---|
口②①口 |----|
口口口口 |②---|
口口口口 |----|
11
口②①口 |①---|
口口口口 |----|
口口口口 |②---|
口口口口 |----|
12
①口口① |①---|
口口口口 |----|
口口口口 |----|
口口口口 |----|
13
口口口口 |①---|
①口口① |----|
口口口口 |②---|
口②口口 |----|
14
口口口口 |①---|
口口口口 |----|
口①口口 |----|
口口口口 |----|
15
口口口① |①---|
口口①口 |----|
口口口口 |②---|
口口②口 |----|
16
口口口口 |①---|
口口口口 |----|
口口①口 |----|
口口口口 |----|
17
①口口口 |①---|
口①口口 |----|
口口口口 |----|
口口口口 |----|
18
口①①口 |①---|
口口口口 |----|
口口口口 |----|
口口口口 |----|
19
口口口口 |----|
口口口口 |----|
口口口口 |----|
口口口口 |----|
20
口口口口 |①---|
口口口口 |----|
口①①口 |----|
口口口口 |----|
21
口口口口 |----|
口口口口 |----|
口口口口 |----|
口口口口 |----|
22
口口口口 |①---|
口口口口 |----|
口口口口 |----|
口①①口 |----|
23
口口口口 |①---|
口口口口 |----|
口②口口 |②---|
①口口口 |----|
24
口口口口 |①---|
口口①口 |----|
口口口口 |----|
口口口口 |----|
25
口口口口 |----|
口口口口 |----|
口①口口 |①---|
口口口口 |----|
26
口口口口 |①---|
口口①口 |----|
口口口口 |----|
口口口口 |----|
27
口口口口 |①---|
口口口口 |----|
口②口口 |②---|
①口口口 |----|
28
口口口② |①---|
口口①口 |----|
口口口口 |②---|
口口口口 |----|
29
口口口口 |----|
口口口口 |----|
口口口口 |----|
口口口口 |----|
30
口口口口 |①---|
①口口① |----|
口口口口 |----|
口口口口 |----|
31
口口口口 |①---|
口①①口 |----|
口口口口 |----|
口口口口 |----|
32
口口口口 |①---|
口口口口 |----|
①口口① |----|
口口口口 |----|
33
口口口口 |①---|
口口口口 |----|
口①①口 |----|
口口口口 |----|
34
口口口口 |①---|
口口口口 |----|
口口口口 |----|
①口口① |----|
35
口口口口 |①---|
口②口口 |----|
口口①口 |②---|
口口口口 |----|
36
口②①口 |①---|
口口口口 |----|
口口口口 |----|
口口口口 |②---|
37
口口口口 |①---|
口口①口 |②---|
口②口口 |③---|
口④③口 |④---|
38
口口口口 |①---|
口口口口 |----|
①口口① |----|
口口口口 |----|
39
口口口口 |----|
口口口口 |----|
口口口口 |----|
口口口口 |----|
40
口口口口 |①---|
①口口① |----|
口口口口 |----|
口口口口 |----|
41
口口口口 |----|
口口口口 |----|
口口口口 |①---|
口①口口 |----|
42
口口口口 |①---|
口口口口 |----|
口②①口 |②---|
口口口口 |----|
43
口口口口 |①---|
口②①口 |----|
口口口口 |②---|
口口口口 |----|
44
口口①口 |①---|
口口②口 |----|
口口口口 |②---|
口口口口 |----|
45
口①口口 |①---|
口口口口 |----|
口口口口 |----|
口口口口 |----|
46
口口口口 |①---|
①口口口 |----|
口①口口 |----|
口口口口 |----|
47
口口口口 |----|
口口口口 |----|
口口口口 |----|
口口口口 |----|
48
口口口口 |①---|
口口口① |----|
口口①口 |----|
口口口口 |----|
49
口②口口 |①---|
口①口口 |----|
口口口口 |②---|
口口口口 |----|
50
口口②口 |①---|
口口①口 |----|
口口口口 |②---|
口口口口 |----|
51
口口口口 |①---|
①口口口 |----|
口①口口 |----|
口口口口 |----|
52
口口口口 |①---|
口口口① |----|
口口①口 |----|
口口口口 |----|
53
口口口① |----|
口口口口 |----|
口口口口 |①---|
口口口口 |----|
54
口口口口 |①---|
口口①口 |----|
口②口口 |②---|
口口口口 |----|
55
口口口① |①---|
口口②口 |----|
口口口口 |②---|
口口口口 |----|
56
口口口口 |①---|
口口口口 |----|
口①口口 |②---|
②口口口 |----|
57
口口口口 |①---|
口口口口 |----|
口②口口 |②---|
口口①口 |----|
58
口口口口 |①---|
①口口口 |----|
口口口口 |----|
口口口口 |----|
59
口口口口 |①---|
口口口口 |----|
①口口① |----|
口口口口 |----|
60
①①①① |①---|
口口口口 |----|
口口口口 |----|
口口口口 |----|
61
口口口口 |----|
口口口口 |----|
口口口口 |----|
口口口口 |----|
62
口口口口 |①---|
①①①① |----|
口口口口 |----|
口口口口 |----|
63
①口口口 |----|
口口口口 |----|
口口口口 |①---|
口口口口 |----|
64
口口口口 |①---|
口①口口 |----|
口口②口 |②---|
口口口口 |----|
65
①口口口 |①---|
口②口口 |----|
口口口口 |②---|
口口口口 |----|
66
口口口口 |①---|
口口口口 |----|
口口①口 |----|
口口口口 |----|
67
口口口口 |①---|
口口口① |----|
口口口口 |----|
口口口口 |----|
68
口口口口 |----|
口口口口 |----|
口口口口 |----|
口口口口 |----|
69
口①口口 |----|
口②口口 |①---|
口口③口 |②---|
口口口口 |③---|
70
口口口口 |①---|
口口口口 |----|
口口口口 |----|
口口①口 |----|
71
口口口口 |①---|
口口口口 |----|
①口口口 |----|
口①口口 |----|
72
口口口① |①---|
口口①口 |----|
口口口口 |----|
口口口口 |----|
73
口口口口 |①---|
口口口口 |----|
②口口② |②---|
①口口① |----|
74
①①①① |①---|
口口口口 |----|
口口口口 |----|
口口口口 |----|
75
口口口口 |----|
口口口口 |----|
①口口口 |①---|
口①口口 |----|
76
口口口口 |①---|
口口口① |----|
口口①口 |----|
口口口口 |----|
77
①口口口 |①---|
口①口口 |----|
口②口口 |②---|
口口口口 |----|
78
口口口② |①---|
口口①口 |----|
口口口口 |②---|
口口口口 |----|
79
口口口口 |①---|
口①口口 |----|
口口①口 |----|
口口口口 |----|
80
口口口口 |①---|
口口①口 |----|
口①口口 |----|
口口口口 |----|
81
口口口口 |①---|
口②口口 |----|
口口①口 |②---|
口口口口 |----|
82
①口口口 |①---|
口口口口 |----|
口②口口 |②---|
口口口口 |----|
83
口口口② |①---|
口口①口 |----|
口口口口 |②---|
口口口口 |----|
84
口口口口 |①---|
口①口口 |----|
口口①口 |----|
口口口口 |----|
85
口口口口 |①---|
口口①口 |----|
口①口口 |----|
口口口口 |----|
86
口口口口 |①---|
①口②① |----|
口口口口 |②---|
口口口口 |----|
87
①②口① |①---|
口口口口 |----|
口口口口 |②---|
口口口口 |----|
88
口口口口 |①---|
①口②① |----|
口口口口 |②---|
口口口口 |----|
89
口口口口 |①---|
口口口口 |----|
①②②① |②---|
口口口口 |----|
90
口口口口 |①---|
口口口口 |----|
口口口口 |②---|
口①②口 |----|
91
口口口口 |①---|
口口②口 |----|
口①口口 |②---|
口口口口 |----|
92
口①口口 |①---|
口口口口 |----|
口口口口 |----|
口口口口 |----|
93
口口口口 |①---|
①口口① |----|
口口口口 |----|
口口口口 |----|
94
口口口口 |①---|
口口口口 |----|
①口口① |----|
②②②② |--②-|
95
口口口口 |----|
口口口口 |----|
口口口口 |----|
口口口口 |----|
96
口口口口 |①---|
口①②口 |----|
口口口口 |----|
口口口口 |--②-|
97
口口口口 |----|
口口口口 |----|
口口口口 |----|
口口口口 |----|
98
口口口口 |①---|
口口口口 |----|
口口②口 |②---|
口①口口 |----|
99
口口口口 |①---|
口口口口 |----|
口②口口 |②---|
口口①口 |----|
100
口口口口 |①---|
口①①口 |----|
口口口口 |----|
口口口口 |----|
101
口口口口 |①---|
①口口① |----|
口口口口 |----|
口口口口 |----|
102
口口口口 |①---|
口口①口 |----|
口口口口 |----|
口口口口 |----|
103
口口口口 |①---|
口口口口 |----|
①口口① |----|
口口口口 |----|


不确定度: 0

最終更新:2012年11月07日 23:41