幸せのかたち
あさき

ADVANCED

Level: 6
BPM: 119
Notes: 416

实际BPM: 238
1
口口口口 |----|
口口口口 |----|
口口口口 |----|
口口口口 |----|
2
口口口口 |①---|
③口④口 |②---|
口②口口 |③---|
①口⑤⑤ |④-⑤-|
3
口口①口 |----|
口口口② |①---|
口口③口 |②---|
口口口口 |③---|
4
口口口口 |①---|
③口④口 |②---|
口②口口 |③---|
①口⑤⑤ |④-⑤-|
5
口口①口 |----|
口口口② |①---|
口口③口 |②---|
口口口口 |③---|
6
口口口口 |①---|
③口④口 |②---|
口②口口 |③---|
①口⑤⑤ |④-⑤-|
7
口口①口 |----|
口口口② |①---|
口口③口 |②---|
④④口口 |③-④-|
8
口口口口 |----|
②口③口 |①---|
口①口口 |②---|
口口④④ |③-④-|
9
口口口口 |----|
③口口④ |①---|
②②①① |②---|
口口口口 |③-④-|
10
口口口口 |----|
口口①口 |----|
口口口口 |----|
口口口口 |--①-|
11
口口④④ |----|
口③口口 |①---|
口②口口 |②---|
口①口口 |③-④-|
12
口口口口 |----|
口口口口 |----|
①口口口 |----|
口②口口 |①-②-|
13
口口口① |----|
④口②口 |----|
口③口口 |①-②-|
口口口口 |③-④-|
14
口①口口 |①---|
口口口口 |----|
口口口② |----|
口口③口 |②-③-|
15
口口口④ |----|
③③口口 |①---|
②②口口 |②---|
①①口口 |③-④-|
16
口口口口 |----|
口口口口 |----|
口①口口 |----|
口口②口 |①-②-|
17
口口口口 |----|
口口口口 |----|
口口口口 |----|
①①口口 |--①-|
18
口口口口 |----|
②③口④ |①---|
口口口① |②-③-|
口口口口 |--④-|
19
口口口口 |①---|
⑤⑤①口 |②-③-|
口口④④ |--④-|
②③口口 |--⑤-|
20
②口①口 |----|
口口口口 |①---|
口口口口 |--②-|
口口口口 |----|
21
口口口口 |①-②-|
①④④① |③-④-|
③②②③ |----|
⑤口口⑤ |--⑤-|
22
口口口口 |----|
口口口口 |①---|
口②口口 |②---|
口口①口 |----|
23
⑤口口① |①---|
口口②口 |②---|
口④口口 |③---|
③口口口 |④-⑤-|
24
口口口口 |①---|
口①口口 |②---|
口口口口 |----|
口口口② |----|
25
口口口③ |----|
口口口口 |①---|
口②口口 |②---|
①口口口 |--③-|
26
口口口口 |----|
①口口口 |----|
口口口口 |----|
口口口口 |①---|
27
口口口口 |①---|
口口口口 |②---|
口②③口 |③---|
口④口① |④---|
28
②口口口 |①---|
口口①口 |--②-|
口口口口 |----|
口口口口 |----|
29
口③口④ |----|
口口②口 |①---|
口①口口 |②---|
口口口口 |③-④-|
30
①口②口 |----|
口④口③ |①---|
口口口口 |②---|
口口口口 |③-④-|
31
口口口口 |----|
口口①口 |①---|
口②口口 |②---|
④口③口 |③-④-|
32
口口口口 |----|
口口口口 |①---|
③口④口 |②---|
口②口① |③-④-|
33
口①①口 |----|
口②②口 |①---|
口口口口 |----|
口口口口 |②---|
34
口口口口 |----|
口口口口 |①---|
口口口口 |----|
口①①口 |----|
35
③口口② |①---|
口③②口 |----|
口①口口 |②---|
①口口口 |--③-|
36
口口口口 |----|
口口口口 |①---|
口②①口 |----|
②口口① |②---|
37
②口口① |①---|
④②①④ |②---|
⑤口③⑤ |③---|
口口口③ |④-⑤-|
38
口口口口 |----|
口口口口 |----|
口口口口 |----|
口口口口 |----|
39
口口口口 |----|
口口口口 |----|
①口口① |----|
②口口② |①-②-|
40
口口口口 |----|
口口口口 |----|
口口口口 |----|
口口口口 |----|
41
口口口口 |----|
口口口口 |----|
口口③口 |①-②-|
①②口④ |③-④-|
42
口口口口 |----|
口口口口 |----|
①②口④ |①-②-|
口口③口 |③-④-|
43
口③口口 |----|
④口②① |----|
口口口口 |①-②-|
口口口口 |③-④-|
44
④口②① |----|
口③口口 |----|
口口口口 |①-②-|
口口口口 |③-④-|
45
口③口④ |----|
③口①口 |①---|
口①口② |②---|
④口②口 |③-④-|
46
口口口口 |----|
口口口口 |----|
口口口口 |----|
口口口口 |----|
47
口③口④ |----|
③口①口 |①---|
口①口② |②---|
④口②口 |③-④-|
48
①口口口 |----|
口口②口 |①---|
口②口口 |----|
口口口① |②---|
49
⑤②④口 |①---|
②③口④ |②---|
④口③① |③---|
口④①⑤ |④-⑤-|
50
口口口① |----|
口口②③ |①---|
③②口口 |----|
①口口口 |②-③-|
51
④③口口 |----|
③①口口 |①---|
口口①② |②---|
口口②④ |③-④-|
52
口口口① |----|
口口口口 |①---|
口口口口 |----|
①口口口 |----|
53
口①口口 |----|
口②口④ |①---|
口③口口 |②---|
口口口口 |③-④-|
54
④口口口 |----|
①口口口 |①---|
②口口口 |②---|
③口口口 |③-④-|
55
口口①口 |----|
④口②口 |①---|
口口③口 |②---|
口口口口 |③-④-|
56
口口口④ |----|
口口口① |①---|
口口口② |②---|
口口口③ |③-④-|
57
口①口口 |----|
口②口④ |①---|
口③口口 |②---|
口口口口 |③-④-|
58
口口口口 |----|
口口口口 |----|
口口②口 |----|
口口①口 |①-②-|
59
口②口口 |----|
口①口口 |①---|
③③口口 |②---|
口口口口 |③---|
60
口口口口 |----|
口口①① |①---|
口口口口 |----|
口口口口 |----|
61
①①口口 |----|
口口口口 |----|
口口口口 |--①-|
口口口口 |----|
62
口口口口 |①---|
口口口口 |----|
口口口口 |----|
口口①① |----|
63
①口口口 |----|
口口口口 |①---|
口③②④ |②---|
口口口口 |③-④-|
64
口口口口 |----|
口口口① |①---|
口口口口 |②---|
④②③口 |③-④-|
65
口口口口 |----|
口口口口 |①---|
③口口② |②---|
口口口① |③---|
66
口口口口 |①---|
口口口口 |----|
口口口口 |----|
①②②口 |②---|
67
口口口口 |----|
口口口口 |----|
口口口口 |----|
口口口口 |----|
68
口口口口 |----|
口口口口 |----|
口口口口 |----|
口口口口 |----|
69
①①口口 |----|
口口②② |①---|
③③口口 |②---|
口口口口 |③---|
70
口口口口 |①---|
口口口口 |----|
口口口口 |----|
口口①① |----|
71
③②口① |①---|
②口口口 |--②-|
口口口② |----|
①口②③ |③---|
72
口口口口 |----|
口口①口 |①---|
口①口口 |----|
口口口口 |----|
73
口②口① |①---|
②口③口 |--②-|
口③口② |----|
①口②口 |③---|
74
①口口口 |①---|
口口口口 |----|
口口口口 |----|
口口口① |----|
75
③口口① |----|
口②④口 |①---|
口④②口 |②---|
①口口③ |③-④-|
76
口口口口 |----|
口①口口 |----|
口口②口 |--①-|
口③口口 |②-③-|
77
口口口③ |----|
口口③口 |----|
②口口口 |①---|
口口口① |②-③-|
78
④口①口 |----|
口④口① |①---|
口口口③ |②---|
②口口口 |③-④-|
79
口①口④ |----|
①口④口 |①---|
③口口口 |②---|
口口口② |③-④-|
80
口①口口 |----|
口②口口 |----|
口③口口 |--①-|
口口口口 |②-③-|
81
②口口口 |----|
口口口③ |①---|
④口口口 |②---|
口④口① |③-④-|
82
口口口② |----|
③口口口 |①---|
口①口④ |②---|
①口④口 |③-④-|
83
②口口口 |----|
口口口③ |①---|
④口①口 |②---|
口④口① |③-④-|
84
口①口口 |----|
口口②口 |----|
口③口口 |--①-|
口口口口 |②-③-|
85
口口④④ |----|
③口口口 |①---|
②口口口 |②---|
①口口口 |③-④-|
86
④④口口 |----|
口口口③ |①---|
口口口② |②---|
口口口① |③-④-|
87
口口④④ |----|
口③口口 |①---|
口②口口 |②---|
口①口口 |③-④-|
88
④④口口 |----|
口口③口 |①---|
口口②口 |②---|
口口①口 |③-④-|
89
口口①① |----|
②口口口 |①---|
口口口③ |②---|
口④④口 |③-④-|
90
口②②口 |----|
③①①④ |①---|
口口口口 |②---|
口口口口 |③-④-|
91
口口口口 |----|
④③③口 |①---|
口②②口 |②---|
口①①口 |③-④-|
92
口口口口 |----|
口口口① |①---|
口口口口 |----|
口口口口 |----|
93
口口口② |①---|
口口①口 |----|
口①口口 |②---|
②口口口 |----|
94
②口口口 |①---|
口①口口 |----|
口口①口 |----|
口口口② |--②-|
95
口口口口 |----|
口口口口 |----|
口口口口 |----|
口口口口 |----|
96
口口口口 |①---|
①口②① |②---|
口口口口 |----|
③口口③ |--③-|
97
口口口口 |----|
口口③口 |----|
口口②口 |①---②-|
口口①口 |--③---|
98
口口口口 |①---|
口②口口 |--②-|
①③口① |③---|
口口口口 |----|
99
口口口口 |①---|
①口②① |--②-|
口④口③ |③---|
口口口口 |④---|
100
①②口① |①---|
口口口③ |----|
口口口口 |②---|
口口口口 |--③-|
101
口口口口 |----|
口口口口 |①---|
②口①口 |②---|
口口③口 |--③-|
102
口口口口 |----|
口口口口 |----|
口口口口 |----|
口口口口 |----|
103
口口口口 |①---|
口口口口 |----|
口口口口 |----|
①口口① |----|


不确定度: 0

最終更新:2012年11月07日 23:40