Rainbow after snow
猫叉Master feat.林ももこ

EXTREME

Level: 9
BPM: 179
Notes: 701

1
口口口口 |----|
口口口口 |----|
口口口口 |----|
口口口口 |----|
2
口口口口 |----|
口口口口 |----|
口口口口 |----|
口口口口 |----|
3
①②口口 |①-②-|
①⑥⑧⑦ |③-④-|
口⑤④口 |⑤-⑥-|
口口③口 |⑦-⑧-|
4
口口④③ |①-②-|
⑤口口口 |③-④-|
⑥口⑧⑦ |⑤-⑥-|
①②口口 |⑦-⑧-|
5
②①③③ |①-②-|
⑤⑤④口 |③-④-|
口⑥⑦⑦ |⑤-⑥-|
口口⑧口 |⑦-⑧-|
6
口口⑦④ |①-②-|
口口⑧③ |③-④-|
⑤⑥口口 |⑤-⑥-|
①②口口 |⑦-⑧-|
7
①②⑦⑦ |①-②-|
⑤⑤⑧口 |③-④-|
口⑥③③ |⑤-⑥-|
口口④口 |⑦-⑧-|
8
⑤⑥口⑦ |①-②-|
口口口⑧ |③-④-|
口口④口 |⑤-⑥-|
①②③口 |⑦-⑧-|
9
⑤⑧⑨口 |①-②-|
口⑤⑦口 |③-④-|
口⑥④③ |⑤-⑥-|
①②⑦口 |⑦-⑧⑨|
10
⑦口口⑧ |①②③④|
⑤口口⑥ |⑤⑥⑦⑧|
③口口④
①口口②

口口口口
口⑨⑩口
口⑪⑫口 |⑨⑩⑪⑫|
⑮⑬⑭⑯ |⑬⑭⑮⑯|
11
口①①口 |①---|
口口口口 |----|
口口口口 |----|
口口口口 |----|
12
口口③口 |①---|
口④口③ |②---|
口口④口 |③---|
①口口② |④---|
13
口④口口 |①---|
④口③口 |②---|
②口口③ |③---|
口②①口 |④---|
14
①口口口 |①-②-|
口口⑤② |③---|
口④口⑤ |④---|
③口④口 |⑤---|
15
口③口口 |①---|
③口④口 |②---|
口口②④ |③---|
口①口② |④---|
16
口口③口 |①---|
口口口③ |②---|
④口口口 |③---|
①④口② |④---|
17
口口口口 |①---|
口口口口 |②---|
口口口口 |----|
①口口② |----|
18
口口口口 |①-②-|
口①口口 |③---|
口口②口 |----|
口③口口 |----|
19
①口口① |①---|
口口口口 |----|
口口口口 |②---|
②口口③ |③---|
20
③④③④ |①-②-|
④口④口 |③---|
①⑤②⑤ |④---|
⑤口⑤口 |⑤---|
21
①口①口 |----|
口①口① |----|
②口②口 |①---|
口②口② |②---|
22
①口口① |----|
口①①口 |----|
口②②口 |①---|
②口口② |②---|
23
口①①口 |----|
①口口① |----|
②口口② |①---|
口②②口 |②---|
24
口②③口 |----|
②①①③ |①---|
口④⑤口 |②-③-|
④口口⑤ |④-⑤-|
25
③口口口 |----|
口①②口 |--①-|
口口口口 |②---|
口口口口 |③---|
26
口③口① |①---|
口口④口 |②---|
口口口口 |③-④-|
②⑤口口 |⑤---|
27
口口口口 |----|
口口口口 |----|
口口口口 |----|
口口口口 |----|
28
⑥⑤⑥口 |①②③-|
⑤①⑤口 |④---|
⑥⑤⑥② |⑤---|
④③口④ |⑥---|
29
口口口口 |----|
口②①② |----|
口①口① |①---|
口②①② |②---|
30
口口口口 |----|
①②①口 |----|
②口②口 |①---|
①②①口 |②---|
31
口①②① |----|
口②口② |----|
口①②① |①---|
口口口口 |②---|
32
④口口⑤ |----|
①④⑤口 |①---|
②口口③ |②-③-|
口②③① |④-⑤-|
33
口①①口 |----|
口口口② |----|
口口口口 |①---|
②口口口 |②---|
34
④⑥⑤③ |①---|
②①口口 |②-③-|
⑥④③⑤ |④-⑤-|
口②①口 |⑥---|
35
口口口④ |----|
口口③口 |----|
口②口口 |①-②-|
①口口口 |③-④-|
36
④⑤⑥口 |①-②-|
⑦③口⑧ |③-④-|
口口②口 |⑤-⑥-|
口口口① |⑦-⑧-|
37
②口②口 |①---|
口口口口 |----|
口①①口 |②---|
口①①③ |③---|
38
口口口口 |①---|
口①口① |②---|
③口③口 |③---|
②口④口 |④---|
39
③③口口 |①---|
口口④④ |②---|
口口口口 |③---|
②①口① |④---|
40
口口口口 |①---|
口口口口 |②---|
①①口口
口口口②

口口口口
口口口口
口⑤口口 |③---|
③口④口 |④-⑤-|
41
②口口口 |①---|
口口①口 |②---|
②③③口 |----|
口口④口 |③-④-|
42
口口口③ |①-②-|
口①①口 |③---|
口④④③ |----|
⑤②口口 |④-⑤-|
43
③口口口 |①-②-|
口①①口 |③---|
③口口口 |----|
口口口② |----|
44
口口口口 |----|
口口口口 |----|
口口口口 |----|
口口口口 |----|
45
①①口口 |①---|
口口②口 |----|
口口③口 |②---|
口口②口 |③---|
46
口口口口 |①---|
③①③口 |②---|
口②口口 |③---|
口①口④ |④---|
47
口①口① |①---|
口口④口 |②---|
口④口口 |③---|
②③③口 |④---|
48
①口①口 |①---|
口②口② |②---|
③口③口 |③---|
口④口④ |④---|
49
②口④口 |①---|
③口③口 |----|
④口②口 |②-③-|
①口①口 |④---|
50
口④口① |----|
⑤②⑤③ |①-②-|
口③口② |③-④-|
口①口④ |⑤---|
51
口口口口 |①---|
口④⑤口 |②---|
口口口口 |③---|
①②③④ |④-⑤-|
52
口口口口 |①---|
口口口① |②---|
口口口口 |③---|
①②③④ |④---|
53
③⑦⑧④ |①-②-|
口①口口 |③-④-|
口口②口 |⑤-⑥-|
⑤口口⑥ |⑦-⑧-|
54
④口⑤⑤ |①-②-|
④③③⑥ |③---|
④口⑥口 |④---|
口①②口 |⑤-⑥-|
55
口口④口 |①---|
口④口④ |②---|
③口④③ |③---|
②②①① |④---|
56
②①口② |①---|
①口①口 |②---|
④①口③ |③---|
③口口④ |④---|
57
口④④口 |①---|
口③③口 |②---|
口②②口 |③---|
口①①口 |④---|
58
①⑤口④ |①-②-|
③⑤④② |③---|
①④⑥⑥ |④---|
③口口② |⑤-⑥-|
59
②口②口 |①---|
口口口口 |②---|
①口口口
口①口口

口口口口
③口③口
口④口④ |③---|
口⑤口口 |④--⑤|
60
②口③② |①---|
口口口③ |②---|
口④⑤口 |③-④-|
④口①⑤ |⑤---|
61
口口口口 |①-②-|
①②③④ |③-④-|
⑤⑥⑦⑧ |⑤-⑥-|
口口口口 |⑦-⑧-|
62
⑤⑥口⑤ |①-②-|
⑥⑤⑤⑦ |③-④-|
口口⑦口 |⑤---|
①②③④ |⑥-⑦-|
63
③口②③ |①---|
口④④口 |②---|
①②口口 |③---|
口①口口 |④---|
64
口口④口 |①---|
③④口③ |②---|
①口口① |③---|
口②②口 |④---|
65
口口口① |①---|
④口①④ |②---|
③②口口 |③---|
口③②口 |④---|
66
①④④⑤ |①-②-|
⑥①②⑤ |③---|
⑥③口② |④---|
③口口口 |⑤-⑥-|
67
③④③④ |①---|
口②②口 |②---|
口口①口 |③---|
口口①口 |④---|
68
⑤⑤口口 |①---|
口口④④ |②---|
①②①② |③-④-|
③③口口 |⑤---|
69
口口口口 |①-②-|
口口口口 |③-④-|
①②③④ |⑤-⑥-|
⑤⑥⑦⑧ |⑦-⑧-|
70
③口口④ |①-②-|
⑦⑤⑥⑦ |③-④-|
③①②④ |⑤-⑥-|
口⑤⑥口 |⑦---|
71
口①①口 |①---|
口口口口 |②---|
口③③口 |③---|
②口口④ |④---|
72
口口②口 |----|
口③口② |①---|
口口③口 |②---|
①口口③ |③---|
73
口③口口 |----|
③口②口 |①---|
①口口② |②---|
①①口③ |③---|
74
口口口口 |①---|
口①口口 |②---|
④③①口 |③---|
②④③④ |④---|
75
口②口口 |----|
②①口口 |①---|
③口①口 |②---|
①③口③ |③---|
76
口口②口 |----|
口口口② |①---|
③口口口 |②---|
①③口③ |③---|
77
口口口口 |----|
口口口口 |①---|
口③口口 |----|
①口口② |②-③-|
78
口口口口 |----|
口口口口 |①-②-|
口口②口 |----|
①口口③ |③---|
79
①口口① |①---|
口①①口 |----|
口②口口 |②---|
口口②口 |----|
80
口口③口 |①---|
口④口③ |②---|
口口④口 |③---|
①口口② |④---|
81
口④口口 |①---|
④口③口 |②---|
②口口③ |③---|
口②①口 |④---|
82
口口①口 |①---|
口①④口 |②---|
口③口④ |③---|
②口③口 |④---|
83
口②口口 |----|
②口③口 |①---|
口口①③ |②---|
口口口① |③---|
84
口口③口 |①---|
口口口③ |②---|
④①口口 |③---|
②④①口 |④---|
85
口口口口 |----|
口口口口 |----|
口口口口 |----|
口口口口 |----|
86
口口口口 |----|
口口口口 |----|
口口口口 |----|
口口口口 |----|
87
①②口口 |①-②-|
①⑥⑧⑦ |③-④-|
口⑤④口 |⑤-⑥-|
口口③口 |⑦-⑧-|
88
口口④③ |①-②-|
⑤口口口 |③-④-|
⑥口⑧⑦ |⑤-⑥-|
①②口口 |⑦-⑧-|
89
②①③③ |①-②-|
⑤⑤④口 |③-④-|
口⑥⑦⑦ |⑤-⑥-|
口口⑧口 |⑦-⑧-|
90
口口⑦④ |①-②-|
口口⑧③ |③-④-|
⑤⑥口口 |⑤-⑥-|
①②口口 |⑦-⑧-|
91
①②⑦⑦ |①-②-|
⑤⑤⑧口 |③-④-|
口⑥③③ |⑤-⑥-|
口口④口 |⑦-⑧-|
92
口口口口 |①-②-|
口口口口 |③-④-|
⑤⑥⑦④ |⑤-⑥-|
①②⑧③ |⑦-⑧-|
93
①②③④ |①②③④|
⑤⑥⑦⑧ |⑤⑥⑦⑧|
⑨⑩⑪⑫ |⑨⑩⑪⑫|
⑬⑭⑮⑯ |⑬⑭⑮⑯|
94
①②③④ |①②③④|
⑤⑥⑦⑧ |⑤⑥⑦⑧|
⑨⑩⑪⑫ |⑨⑩⑪⑫|
⑬⑭⑮⑯ |⑬⑭⑮⑯|

不確定度: 0

最終更新:2014年05月19日 21:30