Proof of the existence
猫叉Master+

EXTREME

Level: 10
BPM: 170
Notes: 737

1
口口口口 |----|
口口口口 |----|
口口口口 |----|
口口口口 |----|
2
口口口口 |①---|
口口口口 |----|
口口口口 |----|
口①①口 |----|
3
口口口口 |----|
口口口口 |----|
口口口口 |----|
口口口口 |----|
4
口口口口 |--①-|
口口口口 |----|
口①①口 |----|
口口口口 |----|
5
口口①口 |----|
口②口① |----|
口口②口 |--①-|
口口口口 |-②--|
6
口口口口 |①---|
口口口口 |----|
①口口口 |----|
口①口口 |----|
7
①口口口 |①---|
口口口口 |----|
口口口口 |----|
口口口口 |----|
8
⑪⑪⑫⑫ |①②③④|
①②③④ |⑤⑥⑦⑧|
⑤⑥⑦⑧ |⑨⑩⑪-|
口⑨⑩口 |-⑫--|
9
口口口口 |①---|
口口口口 |----|
②口口② |----|
①口口① |②---|
10
口口口口 |①-②-|
口①①口 |--③-|
口口口⑥ |--④-|
②③④⑤ |--⑤⑥|
11
口口口口 |--①-|
口口口口 |--②-|
口口口⑤ |--③-|
①②③④ |--④⑤|
12
口①①口 |①-②-|
口口口口 |--③-|
口口口⑥ |--④-|
②③④⑤ |--⑤⑥|
13
口口口口 |--①-|
口口口口 |--②-|
口口④⑥ |--③④|
①②③⑤ |--⑤⑥|
14
①口口① |①-②-|
口口口口 |--③-|
口口口⑥ |--④-|
②③④⑤ |--⑤⑥|
15
口口口口 |①-②-|
口①①口 |--③-|
口口口⑥ |--④-|
②③④⑤ |--⑤⑥|
16
口口口口 |①-②-|
口口口口 |--③-|
口①①⑥ |--④-|
②③④⑤ |--⑤⑥|
17
②口口口 |①---|
口①①口 |--②-|
口口口口 |----|
口口口口 |----|
18
口口⑤② |①-②③|
口⑥③口 |④-⑤⑥|
口口口④
①①①①

口⑧口⑪
⑨口⑫口
口⑩⑦口 |⑦-⑧⑨|
口口口口 |⑩-⑪⑫|
19
口⑤②口 |①-②③|
⑥③口口 |④-⑤⑥|
口口口口
口口④①

口口口口
口口⑪⑧
口⑫⑨口 |⑦-⑧⑨|
口⑦口⑩ |⑩-⑪⑫|
20
口口口⑤ |①-②③|
口②口口 |④-⑤⑥|
③口⑥口
口④①口

口⑪⑧口
口口口口
⑫⑨口口 |⑦-⑧⑨|
口口⑩⑦ |⑩-⑪⑫|
21
口口⑤② |①-②③|
口⑥③口 |④-⑤⑥|
口口口④
口①口口

口⑧口⑪
⑨口⑫口
口⑩⑦口 |⑦-⑧⑨|
口口口口 |⑩-⑪⑫|
22
口⑤②口 |①-②③|
⑥③口口 |④-⑤⑥|
口口口口
口口④①

口口口口
口口⑪⑧
口⑫⑨口 |⑦-⑧⑨|
口⑦口⑩ |⑩-⑪⑫|
23
口口口⑤ |①-②③|
口②口口 |④-⑤⑥|
③口⑥口
口④①口

口⑪⑧口
口口口口
⑫⑨口口 |⑦-⑧⑨|
口口⑩⑦ |⑩-⑪⑫|
24
口口⑤② |①-②③|
口⑥③口 |④-⑤⑥|
口口口口
口①口④

口⑧口⑪
⑨口口口
⑫口口口 |⑦-⑧⑨|
口⑩⑦口 |⑩-⑪⑫|
25
②口口口 |①②③④|
口④口③ |⑤⑥⑦⑧|
口⑥⑤⑦
⑧口口①

⑭⑬⑫⑪
⑮口⑨口
⑯口口口 |⑨⑩⑪⑫|
口⑩口口 |⑬⑭⑮⑯|
26
⑤⑥口口 |①---|
④①口② |②---|
口口④口 |③-④-|
⑥⑤①③ |⑤-⑥-|
27
口口口② |①---|
口口口口 |②---|
口①口口
口口口口

口口口口
④口口口
⑧⑦⑥⑤ |③-④-|
④口③口 |⑤⑥⑦⑧--|
28
口口①口 |①---|
口②口口 |②---|
口口口口
口口口口

口口⑥⑤
口口③④
口④口口 |③-④-|
口口⑤⑥ |⑤-⑥-|
29
口③口口 |①---|
①口口口 |②-③-|
口③②口
口口口口

口口口⑤
⑥⑦⑧⑨
口口口⑤ |④-⑤-|
④口口口 |⑥⑦⑧⑨--|
30
①口口口 |①---|
口口口口 |②---|
①口口口
口口口②

⑤口口④
口⑥⑥口
口⑤④口 |③-④-|
③口口口 |⑤-⑥-|
31
口②①⑨ |①---|
⑧口口口 |②--③④⑤|
口口口⑦ |⑥-⑦-|
⑥⑤④③ |⑧-⑨-|
32
①口口④ |①---|
口⑥⑥⑤ |②---|
口口口口 |③-④-|
②⑤④③ |⑤-⑥-|
33
口口①口 |①--②③④|
⑥口口口 |⑤-⑥-|
②③④⑤
⑥口口口

⑫⑪⑩⑨
口口口⑦
口口口口 |⑦-⑧-|
口口口⑧ |⑨⑩⑪⑫--|
34
口口口口 |①---|
口口口② |②---|
口口口口
口①①口

⑤⑥口口
④口口口
口口④口 |③-④-|
⑥⑤口③ |⑤-⑥-|
35
口口口② |①---|
口口口口 |②---|
口①口口
口口口口

口口口口
④口口口
⑧⑦⑥⑤ |③-④-|
④口③口 |⑤⑥⑦⑧--|
36
口口①口 |①---|
口②口口 |②---|
口口口口
口口口口

口口⑥⑤
口口③④
口④口口 |③-④-|
口口⑤⑥ |⑤-⑥-|
37
口③口口 |①---|
①口口口 |②-③-|
口③②口
口口口口

口口口⑤
⑥⑦⑧⑨
口口口⑤ |④-⑤-|
④口口口 |⑥⑦⑧⑨--|
38
①口口口 |①---|
口口口口 |②---|
①口口口
口口口②

⑤口口④
口⑥⑥口
口⑤④口 |③-④-|
③口口口 |⑤-⑥-|
39
口②①⑨ |①---|
⑧口口口 |②--③④⑤|
口口口⑦ |⑥-⑦-|
⑥⑤④③ |⑧-⑨-|
40
①口口④ |①---|
口⑥⑥⑤ |②---|
口口口口 |③-④-|
②⑤④③ |⑤-⑥-|
41
口口①口 |①--②③④|
⑥口口口 |⑤-⑥-|
②③④⑤
⑥口口口

⑫⑪⑩⑨
口口口⑦
口口口口 |⑦-⑧-|
口口口⑧ |⑨⑩⑪⑫--|
42
口口口口 |①---②-|
口⑥⑤④ |--③-④⑤|
③口⑦② |⑥---⑦-|
⑧①①口 |--⑧---|
43
口口口口 |①---|
口口口④ |----|
③口口口 |②---③-|
口口②① |--④---|
44
①⑥⑤④ |①---②-|
③口口口 |--③-④⑤|
口口②⑦ |⑥---⑦-|
⑧口口口 |--⑧---|
45
口口口口 |①---|
口口口① |----|
口④口口 |----|
口②③口 |②-③-④-|
46
④⑤⑥③ |①---②-|
②口口口 |--③-④⑤|
⑦口①口 |⑥---⑦-|
口口口⑧ |--⑧---|
47
口口口口 |①---|
口口口④ |----|
口③口口 |②---③-|
①口②口 |--④---|
48
①⑥⑤④ |①---②-|
口口③口 |--③-④⑤|
⑧口口⑦ |⑥---⑦-|
②口口口 |--⑧---|
49
③口④③ |①---|
④口③① |----|
口②④口 |②---③-|
②口口② |--④---|
50
⑨口口口 |①---②-|
口⑦⑥⑤ |③-④-⑤⑥|
④口⑧② |⑦---⑧-|
⑩①③口 |⑨-⑩---|
51
口口口口 |①---|
口②口口 |②---|
口口口口
口口口①

口口口口
口口口⑥
④口口口 |③---④-|
口口③⑤ |⑤-⑥---|
52
①⑦⑥⑤ |①---②-|
④⑨口口 |③-④-⑤⑥|
口口②⑧ |⑦---⑧-|
⑩③口口 |⑨-⑩---|
53
口口口② |①---|
口口口① |②---|
口口口口
口①口口

口口③口
口口口口
口⑥口口 |③---|
口④⑤口 |④-⑤-⑥-|
54
⑤⑥⑦④ |①---②-|
②口③口 |③-④-⑤⑥|
⑧口①口 |⑦---⑧-|
口⑨口⑩ |⑨-⑩---|
55
口口口口 |①---|
口②口⑥ |②---|
口④口口 |③---④-|
①口③⑤ |⑤-⑥---|
56
①⑦⑥⑤ |①---②-|
口⑨④口 |③-④-⑤⑥|
⑩口口⑧ |⑦---⑧-|
②口③口 |⑨-⑩---|
57
口⑦⑩② |①---|
口③⑥① |②---|
口⑧⑨口 |③④⑤⑥|
口④⑤口 |⑦⑧⑨⑩|
58
①口口① |①---|
口口口口 |----|
②口口口 |②---|
口口口口 |----|
59
口口口口 |①---|
口口口① |----|
口口口口 |②---|
②口口① |----|
60
口口①口 |①---|
口②口口 |----|
口口①口 |②---|
口口口口 |----|
61
口口口口 |①---|
口口口① |----|
口口口口 |②---|
口②口① |----|
62
口口①口 |①---|
口①口口 |----|
口口①口 |②---|
口②口口 |----|
63
口口口① |①---|
口②口口 |----|
口口口① |②---|
口口口口 |----|
64
口口口口 |①---|
②口①口 |----|
口口口口 |②---|
口口①口 |----|
65
口③②口 |①---②-|
口口口口 |--③---|
口①①口
口③②口

⑤口口④
口口⑥口
口⑦口口 |④---⑤-|
⑤口口④ |⑥-⑦-|
66
口③①口 |①-②-|
④①口② |③-④-|
口口口口
口口①口

口口口⑤
口口⑤口
⑤口口⑦ |⑤-⑥-|
口⑥⑧口 |⑦-⑧-|
67
口③①口 |①-②-|
④口口② |③-④-|
口①口口
①口口口

口口口口
口⑦口口
⑤口⑤⑦ |⑤-⑥-|
⑧⑥⑧⑤ |⑦-⑧-|
68
口③①⑤ |①-②-|
④口①② |③-④-|
⑤①⑤⑦ |⑤-⑥-|
口⑥⑧口 |⑦-⑧-|
69
①③①口 |①-②-|
④⑦⑤② |③-④-|
⑤①口⑦ |⑤-⑥-|
⑦⑥⑧⑤ |⑦-⑧-|
70
口③①① |①-②-|
④口⑤② |③-④-|
⑤①口⑦ |⑤-⑥-|
口⑥⑧⑤ |⑦-⑧-|
71
⑦③①⑦ |①-②-|
④⑤③② |③-④-|
⑤①⑤⑦ |⑤-⑥-|
①⑥⑧③ |⑦-⑧-|
72
口③①口 |①-②-|
④⑤①② |③-④-|
⑤①口⑦ |⑤-⑥-|
口⑥⑧⑤ |⑦-⑧-|
73
①③①口 |①-②-|
④口口② |③-④-|
口①口口
口口口口

口口口口
口口⑤口
⑤⑦⑧⑦ |⑤-⑥-|
口⑥⑧⑤ |⑦-⑧-|
74
口③①⑤ |①-②-|
④①⑤② |③-④-|
⑤口口⑦ |⑤-⑥-|
口⑥⑧口 |⑦-⑧-|
75
口③①口 |①-②-|
④口口② |③-④-|
口①口口
①口口口

口口口口
口⑦口口
⑤口⑤⑦ |⑤-⑥-|
⑧⑥⑧⑤ |⑦-⑧-|
76
口③①⑤ |①-②-|
④口①② |③-④-|
⑤①⑤⑦ |⑤-⑥-|
口⑥⑧口 |⑦-⑧-|
77
①③①口 |①-②-|
④⑦⑤② |③-④-|
⑤①口⑦ |⑤-⑥-|
口⑥⑧⑤ |⑦-⑧-|
78
口③①① |①-②-|
④口⑤② |③-④-|
⑤①口⑦ |⑤-⑥-|
①⑥⑧⑤ |⑦-⑧-|
79
⑦③①① |①-②-|
④⑤③② |③-④-|
⑤①口⑦ |⑤-⑥-|
①⑥⑧③ |⑦-⑧-|
80
口口①③ |①--②|
口③②① |--③-|
③②①口
②口口口

⑤⑤口口
⑦口口⑥
口口⑥④ |④-⑤-|
口⑦口④ |⑥-⑦-|
81
⑦口①⑧ |①②③④|
⑨④③⑩ |⑤-⑥-|
⑪②口⑤ |⑦⑧⑨⑩|
⑥⑬⑫口 |⑪-⑫-⑬-|
82
口口口口 |①---|
口口口口 |----|
口口①① |②---|
②口口口 |----|
83
口口口口 |①---|
口口①① |----|
②口口口 |②---|
口口口口 |----|
84
口口①① |①---|
②口口口 |----|
口口口口 |②---|
口口口口 |----|
85
口口口口 |①---|
口口口口 |----|
口口口口 |②---|
②口①① |----|
86
口口口口 |①---|
口①口口 |----|
②口①① |②---|
口口口口 |----|
87
口口口口 |①---|
②口①① |----|
口口口口 |②---|
口口口口 |----|
88
口口口口 |①---|
口口口口 |----|
口口①① |②---|
②口口口 |----|
89
口①①口 |①---|
口口口口 |----|
口口口口 |----|
口口口口 |----|

不確定度: 0

最終更新:2014年06月20日 02:36