トリカゴノ鳳凰
L.E.D. Vs. 幽閉サテライト

EXTREME

Level: 10
BPM: 185
Notes: 947

1
口口口口 |----|
口口口口 |----|
口口口口 |----|
口口口口 |----|
2
②口⑦① |①-②-|
口口③口 |③-④-|
⑧④口⑤ |⑤-⑥-|
⑥口口口 |⑦-⑧-|
3
②⑥口③ |①-②-|
⑧口口口 |③-④-|
口④①⑤ |⑤-⑥-|
口口口⑦ |⑦-⑧-|
4
②口⑦口 |①-②-|
口口③① |③-④-|
⑧④口⑤ |⑤-⑥-|
⑥口口口 |⑦-⑧-|
5
②⑥口③ |①-②-|
⑧口口口 |③-④-|
口④①⑤ |⑤-⑥-|
口口口⑦ |⑦-⑧-|
6
②口⑦口 |①-②-|
口口③① |③-④-|
⑧④①⑤ |⑤-⑥-|
⑥口口口 |⑦-⑧-|
7
②⑥口③ |①-②-|
⑧口口口 |③-④-|
口④①⑤ |⑤-⑥-|
口口口⑦ |⑦-⑧-|
8
②口⑦③ |①-②-|
口⑥口① |③-④-|
口④①⑤ |⑤-⑥-|
口⑧口口 |⑦-⑧-|
9
⑩⑩⑩⑩ |①②③-|
④口①⑦ |④⑤⑥-|
⑤口②⑧ |⑦⑧⑨-|
⑥口③⑨ |⑩---|
10
口口⑦口 |①-②-|
②④①口 |③-④-|
⑧口口⑤ |⑤-⑥-|
口⑥③口 |⑦-⑧-|
11
②⑥口③ |①-②-|
⑧口⑤① |③-④-|
口④①⑤ |⑤-⑥-|
口口口⑦ |⑦-⑧-|
12
口⑧⑤口 |①-②-|
口口口③ |③-④-|
②⑥①⑦ |⑤-⑥-|
口④①口 |⑦-⑧-|
13
口口⑦口 |①-②-|
②⑧⑤⑦ |③-④-|
⑧口①口 |⑤-⑥-|
④⑥③口 |⑦-⑧-|
14
口口⑦口 |①-②-|
②口口口 |③-④-|
⑧④①⑤ |⑤-⑥-|
口⑥③① |⑦-⑧-|
15
②⑥口③ |①-②-|
⑧口⑤① |③-④-|
口④①⑤ |⑤-⑥-|
口口口⑦ |⑦-⑧-|
16
口⑧⑤口 |①-②-|
口口口③ |③-④-|
②⑥①⑦ |⑤-⑥-|
口④①口 |⑦-⑧-|
17
口口口口 |①-②-|
口④④口 |③-④-|
②口口口
口口③①

⑤口口⑤
口口口口
口口口口 |--⑤-|
⑥口口⑥ |--⑥-|
18
口②①⑥ |--①-|
⑤口③口 |②-③-|
口⑦⑦口 |④-⑤-|
口④口口 |⑥-⑦-|
19
①口①口 |--①-|
口②⑥② |②-③-|
⑤口口口 |--④-|
③口③④ |⑤-⑥-|
20
①①③③ |①---|
口口口口 |②-③-|
口②口口
口口口口

口⑤口口
口口口口
④口口④ |--④-|
口口口口 |--⑤-|
21
口口④④ |①-②-|
③口口① |③-④-|
口口口口 |----|
口口②口 |----|
22
口③口① |----|
②③口口 |①---|
①口②② |②---|
口①口③ |③---|
23
③口①口 |①---|
⑤口②① |②-③-|
③⑤口④ |--④-|
①口④口 |--⑤-|
24
③③①① |①---|
口口口口 |②-③-|
口口②口
口口口口

口口⑤口
口口口口
④口口④ |--④-|
口口口口 |--⑤-|
25
口口口口 |①②③-|
口①①口 |----|
口②②口
口③③口

口口口④
⑤口⑥口
口口口④ |--④-|
口口口口 |⑤-⑥-|
26
②口③口 |①-②-|
口口口口 |③-④-|
口口口口
口④①口

口⑦口口
口口口⑥
口口口口 |⑤-⑥-|
口口⑧⑤ |⑦-⑧-|
27
②⑦③② |①-②-|
⑥⑧④⑥ |③-④-|
①③⑦口 |⑤-⑥-|
⑤④⑧⑤ |⑦-⑧-|
28
①口②① |①---|
④⑤③④ |②-③-|
口②口口 |--④-|
口③⑤口 |--⑤-|
29
②口③① |①-②-|
口口④口 |③-④-|
①④口② |----|
口③口口 |----|
30
口①③口 |----|
①口②② |①---|
③②口口 |②---|
③口①口 |③---|
31
②②口口 |①---|
口①口口 |----|
口④口① |②---|
口口③① |③-④-|
32
②口口② |①---|
口口口口 |----|
③口口④ |②---|
①口口① |③-④-|
33
口口口口 |①②③-|
口①①口 |----|
口②②口
口③③口

④口口⑤
口⑥口口
口口口口 |--④-|
口口口口 |⑤-⑥-|
34
口④⑤口 |①-②-|
③口①⑥ |③-④-|
②口口⑦ |⑤-⑥-|
口①⑧① |⑦-⑧-|
35
⑤④⑤① |①-②-|
③口①⑥ |③-④-|
②⑤口⑦ |⑤-⑥-|
口①⑧口 |⑦-⑧-|
36
口④⑤① |①-②-|
③口①⑥ |③-④-|
②口口⑦ |⑤-⑥-|
口①⑧口 |⑦-⑧-|
37
⑥④⑤口 |①-②-|
③⑤⑦口 |③-④-|
②⑦⑤⑦ |⑤-⑥-|
口①⑧口 |⑦-⑧-|
38
口④⑤口 |①-②-|
③口口⑥ |③-④-|
②口口⑦ |⑤-⑥-|
口①⑧① |⑦-⑧-|
39
⑦④⑤口 |①-②-|
③⑧②⑥ |③-④-|
②⑥④⑦ |⑤-⑥-|
⑤①⑧③ |⑦-⑧-|
40
⑦④⑥① |①-②-|
④口①⑥ |③-④-|
②口口⑧ |⑤-⑥-|
⑤②⑧③ |⑦-⑧-|
41
口口口口 |①-②-|
口③②口 |③-④-|
①⑤④口 |⑤-⑥-|
⑦①⑧⑥ |⑦-⑧-|
42
①③③① |①---|
口②②口 |②-③-|
④④④④ |④---|
口口口口 |----|
43
口口口口 |----|
②口口① |①---|
口口口口 |②---|
③①②③ |③---|
44
③⑤⑤口 |①---|
⑤①①⑤ |②-③-|
口①①② |--④-|
④口口④ |⑤---|
45
口口口口 |①②③-|
口①①口 |----|
口②②口 |----|
口③③口 |----|
46
①①③② |----|
口口①② |①---|
②口口口 |②---|
③③口口 |③---|
47
②口口口 |①---|
②口口口 |②---|
口①②①
口口口①

口口口口
口口③③
③口口⑤ |③---|
口④口口 |④-⑤-|
48
②①①② |①---|
口③③口 |----|
口口口口 |----|
口口口口 |②-③-|
49
口口口口 |①---|
口口口口 |----|
口口口口 |----|
①口口① |----|
50
①⑤④④ |①-②-|
①⑤口口 |③-④-|
口③②② |⑤---|
③口口口 |----|
51
③⑥②⑤ |--①-|
⑦④⑥① |②-③-|
⑤②⑦④ |④-⑤-|
①口③口 |⑥-⑦-|
52
④口③口 |①-②-|
口口口② |③-④-|
口③口④
②①口①

口⑦口⑥
口⑤⑦口
⑥口口口 |⑤-⑥-|
口⑧⑤⑧ |⑦-⑧-|
53
口口②口 |①---|
①口口② |②-③-|
口③①口 |----|
③口口口 |----|
54
②口③③ |----|
②口口口 |①---|
③口口口 |②---|
口口①① |③---|
55
口②口口 |①---|
口②①口 |②---|
口口口口
①①口②

口口口口
③口⑤口
口④③③ |③---|
口口口口 |④-⑤-|
56
①口②① |①---|
口③口口 |----|
口口口口 |----|
口口口口 |②-③-|
57
口口口口 |①---|
口口③口 |----|
口②②口 |--②-|
①口口① |--③-|
58
①④口口 |①-②③|
口口口口 |④-⑤-|
口口口③
口口⑤②

⑩口⑥⑨
口口口口
口⑦口口 |⑥⑦⑧-|
口⑧口口 |⑨-⑩-|
59
口口口⑩ |①-②③|
④①口⑧ |④-⑤-|
⑥⑦口⑤ |⑥⑦⑧-|
⑨口③② |⑨-⑩-|
60
①④⑥⑨ |①-②③|
口口③口 |④-⑤-|
⑧⑦②⑤ |⑥-⑦⑧|
⑩口口口 |⑨-⑩-|
61
①口口⑩ |①-②③|
④口②⑤ |④-⑤-|
⑥⑦③口 |⑥-⑦⑧|
口⑨口⑧ |⑨-⑩-|
62
①①口⑩ |①-②③|
④④③⑦ |④-⑤-|
⑥⑥②⑤ |⑥-⑦⑧|
⑨口⑧口 |⑨-⑩-|
63
①①③口 |①-②③|
④④⑧⑦ |④-⑤-|
⑥⑥②口 |⑥⑦⑧-|
⑨⑨⑩⑤ |⑨-⑩-|
64
①①口③ |①-②③|
⑥④⑩⑧ |④-⑤-|
⑥⑨⑤② |⑥-⑦⑧|
口口口⑦ |⑨-⑩-|
65
①①②② |①-②-|
⑤⑥口口 |③-④-|
⑤⑧③③ |⑤-⑥-|
④④口⑦ |⑦-⑧-|
66
①⑤④口 |①-②-|
⑥口①③ |③-④-|
⑦口口② |⑤-⑥-|
口⑧①口 |⑦-⑧-|
67
①⑤④口 |①-②-|
⑥口口③ |③-④-|
⑦口口② |⑤-⑥-|
口⑧①⑤ |⑦-⑧-|
68
①⑤④口 |①-②-|
⑥口口③ |③-④-|
⑦口口② |⑤-⑥-|
口⑧①口 |⑦-⑧-|
69
口⑤④⑦ |①-②-|
⑥口口③ |③-④-|
⑦口⑧② |⑤-⑥-|
口⑧①⑥ |⑦-⑧-|
70
①⑤④口 |①-②-|
⑥①口③ |③-④-|
⑦口口② |⑤-⑥-|
口⑧①口 |⑦-⑧-|
71
④⑤④⑦ |①-②-|
⑥①口③ |③-④-|
⑦④口② |⑤-⑥-|
①⑧①口 |⑦-⑧-|
72
口⑥④口 |①-②-|
⑥①⑦④ |③-④-|
⑧③⑤② |⑤-⑥-|
口⑧②口 |⑦-⑧-|
73
口口④口 |①-②-|
口③口⑤ |③-④-|
⑧②⑥① |⑤-⑥-|
口⑦①口 |⑦-⑧-|
74
①③③① |①---|
口②②口 |②-③-|
口④④口 |④---|
④口口④ |----|
75
口口口口 |----|
②口口① |①---|
口口口口 |②---|
③①②③ |③---|
76
③⑤⑤口 |①---|
⑤①①⑤ |②-③-|
口①①② |--④-|
④口口④ |⑤---|
77
口口口口 |①②③-|
口①①口 |----|
口②②口 |----|
口③③口 |----|
78
①①③② |----|
口口①② |①---|
②口口口 |②---|
③③口口 |③---|
79
②口口口 |①---|
②口口口 |②---|
口①②①
口口口①

口口口口
口口③③
③口口⑤ |③---|
口④口口 |④-⑤-|
80
②①①② |①---|
口③③口 |----|
口口口口 |----|
口口口口 |②-③-|
81
口口口口 |①---|
口口口口 |----|
口口口口 |----|
①口口① |----|
82
①⑤④④ |①-②-|
①⑤口口 |③-④-|
口③②② |⑤---|
③口口口 |----|
83
③⑥②⑤ |--①-|
⑦④⑥① |②-③-|
⑤②⑦④ |④-⑤-|
①口③口 |⑥-⑦-|
84
④口③口 |①-②-|
口口口② |③-④-|
口③口④
②①口①

口⑦口⑥
口⑤⑦口
⑥口口口 |⑤-⑥-|
口⑧⑤⑧ |⑦-⑧-|
85
口口②口 |①---|
①口口② |②-③-|
口③①口 |----|
③口口口 |----|
86
②口③③ |----|
②口口口 |①---|
③口口口 |②---|
口口①① |③---|
87
口②口口 |①---|
口②①口 |②---|
口口口口
①①口②

口口口口
③口⑤口
口④③③ |③---|
口口口口 |④-⑤-|
88
①口②① |①---|
口③口口 |----|
口口口口 |----|
口口口口 |②-③-|
89
口口口口 |①---|
口口③口 |----|
口②②口 |--②-|
①口口① |--③-|
90
①④⑥⑨ |①-②③|
口口口③ |④-⑤-|
口口⑦口 |⑥⑦⑧-|
⑩⑧⑤② |⑨-⑩-|
91
①口口⑩ |①-②③|
④口口⑧ |④-⑤-|
⑥⑦口⑤ |⑥⑦⑧-|
⑨口③② |⑨-⑩-|
92
①④⑥⑨ |①-②③|
口口口口 |④-⑤-|
⑧口③口 |⑥-⑦⑧|
⑩⑦⑤② |⑨-⑩-|
93
①口⑧⑩ |①-②③|
④口口⑦ |④-⑤-|
⑥口③⑤ |⑥-⑦⑧|
⑨口口② |⑨-⑩-|
94
①①口⑩ |①-②③|
④④③⑦ |④-⑤-|
⑥⑥口⑤ |⑥-⑦⑧|
⑨⑨⑧② |⑨-⑩-|
95
①①③口 |①-②③|
④④⑧⑦ |④-⑤-|
⑥⑥②口 |⑥⑦⑧-|
⑨⑨⑩⑤ |⑨-⑩-|
96
①①口③ |①-②③|
⑥④⑩⑧ |④-⑤-|
口口⑤② |⑥-⑦⑧|
口⑨口⑦ |⑨-⑩-|
97
①①②② |①-②-|
口口口口 |③-④-|
③③④④
口口口口

口口⑫口
⑨⑦口⑩
口口口口 |⑤⑥⑦⑧|
⑤⑪⑧⑥ |⑨⑩⑪⑫|
98
②①⑦口 |①-②-|
口口③口 |③-④-|
⑧④口⑤ |⑤-⑥-|
⑥口口口 |⑦-⑧-|
99
②⑥口③ |①-②-|
⑧口口口 |③-④-|
口④①⑤ |⑤-⑥-|
口口口⑦ |⑦-⑧-|
100
②口⑦口 |①-②-|
口口③① |③-④-|
⑧④口⑤ |⑤-⑥-|
⑥口口口 |⑦-⑧-|
101
②⑥口③ |①-②-|
⑧口口口 |③-④-|
口④①⑤ |⑤-⑥-|
口口口⑦ |⑦-⑧-|

不確定度: 0

最終更新:2014年05月19日 21:30