Sol Cosine Job 2
DJ TECHNORCH

EXTREME

Level: 10
BPM: 190-200
Notes: 993

1
口口口口 |----|
口口口口 |----|
口口口口 |----|
口口口口 |----|
2
口口口口 |----|
口口口口 |----|
口口口口 |----|
口口口口 |----|
3
口口口口 |①---|
口①②口 |②---|
口③④口 |③---|
口口口口 |④---|
4
口口⑥口 |①-②-|
①⑤口⑥ |③---|
口口口② |④--⑤|
③口⑦④ |⑥-⑦-|
5
②①口③ |①---|
①④口口 |②---|
口口口口 |③---|
口口口口 |④---|
6
口④③口 |①---|
④⑤①③ |②---|
②口口口 |③---|
口口口口 |④-⑤-|
7
⑧口口⑥ |①-②-|
口⑦⑤口 |③-④-|
口①③① |⑤-⑥-|
②口①④ |⑦-⑧-|
8
⑧⑦①⑥ |①-②-|
⑦⑦⑤① |③-④-|
口①③口 |⑤-⑥-|
②口口④ |⑦-⑧-|
9
⑧口①⑥ |①-②-|
口⑦⑤① |③-④-|
口①③口 |⑤-⑥-|
②口口④ |⑦-⑧-|
10
⑧④⑦⑥ |①-②-|
④⑦⑤⑦ |③-④-|
口①③① |⑤-⑥-|
②口①④ |⑦-⑧-|
11
口口口口 |①---|
口口口口 |----|
口口口口 |----|
口①①口 |----|
12
⑩⑥口⑨ |①-②③|
口④③① |④-⑤⑥|
⑫②⑤⑪ |⑦⑧⑨⑩|
⑭⑧⑦⑬ |⑪⑫⑬⑭|
13
⑨⑤①⑩ |①-②③|
⑤②③① |④-⑤-|
⑨④⑥⑩ |⑥⑦⑧-|
口⑦⑧口 |⑨-⑩-|
14
⑫口①口 |①-②③|
⑥②③① |④-⑤⑥|
⑫④⑦⑪ |⑦⑧⑨⑩|
⑧⑩⑨⑤ |⑪-⑫-|
15
⑨⑤①⑩ |①-②③|
⑤②③① |④-⑤-|
⑨④⑥⑩ |⑥⑦⑧-|
口⑦⑧口 |⑨-⑩-|
16
口⑤①口 |①-②③|
⑤②③① |④-⑤-|
口④⑥口 |⑥⑦⑧-|
⑨⑦⑧⑩ |⑨-⑩-|
17
⑤口①⑥ |①-②③|
口②③① |④-⑤⑥|
口④口口
口口口口

口⑪⑫口
⑪口口⑫
⑦口口⑧ |⑦⑧⑨⑩|
口⑨⑩口 |⑪-⑫-|
18
⑦口口⑥ |①-②-③-|
口①④口 |④-⑤-⑥-|
⑪③②⑫ |⑦-⑧-⑨-|
⑤⑨⑩⑧ |⑩-⑪-⑫-|
19
⑨⑤①⑩ |①-②③|
⑤②③① |④-⑤-|
⑨④⑥⑩ |⑥⑦⑧-|
口⑦⑧口 |⑨-⑩-|
20
口⑤①口 |①-②③|
⑤②③① |④-⑤-|
口④⑥口 |⑥⑦⑧-|
⑨⑦⑧⑩ |⑨-⑩-|
21
⑤口①⑥ |①-②③|
口②③① |④-⑤⑥|
口④口口
口口口口

口⑪⑫口
口口口口
⑦口口⑧ |⑦⑧⑨⑩|
口⑨⑩口 |⑪-⑫-|
22
⑤口口口 |①-②③|
口口④口 |④-⑤⑥|
口③②⑥
口口口①

口口口口
⑧口口⑨
⑦口口口 |⑦-⑧⑨|
⑩⑪⑫⑬ |⑩⑪⑫⑬|
23
⑤②③① |①-②③|
⑨④⑥⑩ |④-⑤-|
⑦⑤①⑧ |⑥⑦⑧-|
口口口口 |⑨-⑩-|
24
⑤②③① |①-②③|
口④⑥口 |④-⑤-|
口⑤①口 |⑥⑦⑧-|
⑨⑦⑧⑩ |⑨-⑩-|
25
⑤②③① |①-②③|
⑪④⑥⑩ |④-⑤⑥|
⑨⑤①口 |⑦⑧⑨⑩|
口⑦⑧⑫ |⑪-⑫-|
26
口⑤②④ |①-②③|
口③口口 |④-⑤⑥|
口口⑥口
①口口口

⑦口口口
口口口口
⑨口口⑧ |⑦-⑧⑨|
⑬⑫⑪⑩ |⑩⑪⑫⑬|
27
⑨⑤①⑩ |①-②③|
⑤②③① |④-⑤-|
⑦④⑥⑧ |⑥⑦⑧-|
口口口口 |⑨-⑩-|
28
口口①口 |①-②③|
口②③① |④---|
口④口口
口口口口

口⑩口口
⑧口口⑪
口口口⑤ |⑤⑥⑦⑧|
⑫⑥⑦⑨ |⑨⑩⑪⑫|
29
⑥口①⑦ |①②③④|
口②⑤口 |⑤-⑥⑦|
口④③口
口口口口

口⑫⑬口
口口口口
⑧口口⑨ |⑧⑨⑩⑪|
口⑩⑪口 |⑫-⑬-|
30
⑤口口口 |①-②③|
⑧①④⑨ |④-⑤⑥|
⑦③②⑥ |⑦-⑧⑨|
⑩⑪⑫⑬ |⑩⑪⑫⑬|
31
⑤②③① |①-②③|
⑨④⑥⑩ |④-⑤-|
⑦⑤①⑧ |⑥⑦⑧-|
口口口口 |⑨-⑩-|
32
⑤②③① |①-②③|
口④⑥口 |④-⑤-|
⑨⑤①⑩ |⑥⑦⑧-|
⑨⑦⑧⑩ |⑨-⑩-|
33
⑫②③① |①-②③|
⑤④⑧⑥ |④-⑤⑥|
⑪⑦①口 |⑦⑧⑨⑩|
口⑨⑩口 |⑪-⑫-|
34
口④口口 |①②-③|
口③口口 |④---|
口口口②
口口口①

口口口口
⑤口口⑥
口⑦⑧口 |⑤⑥⑦⑧|
⑨⑩⑪⑫ |⑨⑩⑪⑫|
35
①口口① |①---|
口口口口 |----|
口口口口 |----|
口②②口 |--②-|
36
口②口⑤ |①-②③|
①口③① |④-⑤-|
口④口⑤
口口口口

口口口口
⑧⑥口口
口口口口 |--⑥-|
口口口⑦ |⑦-⑧-|
37
④②⑧⑥ |①-②-|
口口口③ |③-④-|
⑦口①⑤ |⑤-⑥-|
①③⑤⑦ |⑦-⑧-|
38
口⑧口口 |①-②③|
①②③⑤ |④-⑤-|
口④①⑦ |--⑥-|
⑥口口口 |⑦-⑧-|
39
⑥⑧②④ |①-②-|
口口⑤③ |③-④-|
①口⑦口 |⑤-⑥-|
⑦⑤③① |⑦-⑧-|
40
口口⑦⑤ |①-②③|
口②⑨③ |④-⑤-|
①④⑧① |⑥-⑦-|
口口⑥口 |⑧-⑨-|
41
④②⑧⑥ |①-②-|
口③⑦口 |③-④-|
口⑤口① |⑤-⑥-|
①③⑤⑦ |⑦-⑧-|
42
口⑦口口 |①-②③|
②⑨口③ |④-⑤-|
①⑧⑤① |⑥-⑦-|
④⑥口口 |⑧-⑨-|
43
⑥⑧②④ |①-②-|
⑤口③口 |③-④-|
①口口⑦ |⑤-⑥-|
⑦⑤③① |⑦-⑧-|
44
口口口⑤ |①-②③|
⑥②口① |④-⑤-|
④⑧③⑦ |--⑥-|
口口口口 |⑦-⑧-|
45
④②⑧⑥ |①-②-|
口③口① |③-④-|
⑦口⑤口 |⑤-⑥-|
①③⑤⑦ |⑦-⑧-|
46
口①口口 |①②③-|
⑤⑥②④ |④-⑤-|
⑨③⑦⑩ |⑥⑦⑧-|
口⑧口口 |⑨-⑩-|
47
⑥⑧②④ |①-②-|
⑤口口③ |③-④-|
口①⑦口 |⑤-⑥-|
⑦⑤③① |⑦-⑧-|
48
口口⑦口 |①-②③|
口②⑨⑤ |④-⑤-|
①④⑧③ |⑥-⑦-|
口口⑥① |⑧-⑨-|
49
④②⑧⑥ |①-②-|
⑦①口③ |③-④-|
⑤口口口 |⑤-⑥-|
①③⑤⑦ |⑦-⑧-|
50
口口口口 |①-②③|
口①②口 |④-⑤-|
口口④①
⑤③口口

⑦⑥口口
口口口口
口口口⑧ |--⑥-|
口口口口 |⑦-⑧-|
51
⑧⑩②④ |①-②-|
④⑤⑥⑦ |③-④⑤|
③①口口 |⑥⑦⑧-|
⑨⑥③① |⑨-⑩-|
52
口口口口 |①---|
口口口口 |----|
口①①口 |----|
口口口口 |----|
53
口口口口 |----|
口口口口 |----|
口口口口 |----|
口口口口 |----|
54
口口口口 |----|
口口口口 |----|
口口口口 |----|
口口口口 |----|
55
口口口口 |----|
口口口口 |----|
口①口口 |----|
口口口口 |--①-|
56
口口口口 |①---|
口口口口 |----|
口口①口 |----|
口口口口 |----|
57
口口口口 |----|
口口口口 |----|
口①口口 |----|
口口口口 |--①-|
58
口口口口 |①---|
口口口口 |----|
口口①口 |----|
口口口口 |----|
59
口⑨⑩口 |①-②③|
⑤②⑥① |④-⑤-|
⑤③⑦① |⑥⑦⑧-|
口④⑧口 |⑨-⑩-|

BPM: 195
60
①⑦口④ |①-②-|
口口口口 |③-④-|
③口⑥② |⑤-⑥-|
①⑤口④ |⑦---|
61
①⑬⑫口 |①-②③|
⑤⑦②⑧ |④-⑤⑥|
⑪③⑩口 |⑦⑧⑨⑩|
口⑨④⑥ |⑪⑫⑬-|
62
①口口④ |①-②-|
③⑦②口 |③-④-|
口口⑥口 |⑤-⑥-|
①⑤口④ |⑦---|
63
口⑤④口 |①-②-|
⑦⑪⑩⑥ |③-④⑤|
①③⑫② |⑥⑦⑧⑨|
口⑨⑧口 |⑩⑪⑫-|

BPM: 200
64
①口口④ |①-②-|
⑦口口⑥ |③-④-|
③⑤口② |⑤-⑥-|
①口口④ |⑦---|
65
③⑬⑭⑧ |①②③④|
⑮⑨④⑫ |⑤⑥⑦⑧|
⑤⑪⑩② |⑨⑩⑪⑫|
①⑦口⑥ |⑬⑭⑮-|
66
①口口④ |①-②-|
⑦口口⑥ |③-④-|
③口口② |⑤-⑥-|
①⑤口④ |⑦---|
67
⑦⑤⑥⑧ |①②③④|
口③④口 |⑤⑥⑦⑧|
口①②口 |⑨---|
⑨口口⑨ |----|
68
⑥②⑤③ |①--②|
口④④口 |--③-|
①口口① |④--⑤|
⑥②⑤③ |--⑥-|
69
口②口③ |①--②|
口④④口 |--③-|
口①①口 |④---|
口②口③ |----|
70
①②③④ |①-②-③-|
⑫口口⑤ |④-⑤-⑥-|
⑪口口⑥ |⑦-⑧-⑨-|
⑩⑨⑧⑦ |⑩-⑪-⑫-|
71
①②③④ |①-②-③-|
⑫口口⑤ |④-⑤-⑥-|
⑪口口⑥ |⑦-⑧-⑨-|
⑩⑨⑧⑦ |⑩-⑪-⑫-|
72
①②③④ |①-②-③-|
⑫口口⑤ |④-⑤-⑥-|
⑪①①⑥ |⑦-⑧-⑨-|
⑩⑨⑧⑦ |⑩-⑪-⑫-|
73
①②③④ |①-②-③-|
⑫口口⑤ |④-⑤-⑥-|
⑪口口⑥ |⑦-⑧-⑨-|
⑩⑨⑧⑦ |⑩-⑪-⑫-|
74
①②③④ |①-②-③-|
⑫口口⑤ |④-⑤-⑥-|
⑪①①⑥ |⑦-⑧-⑨-|
⑩⑨⑧⑦ |⑩-⑪-⑫-|
75
①②③④ |①-②-③-|
⑫口口⑤ |④-⑤-⑥-|
⑪①①⑥ |⑦-⑧-⑨-|
⑩⑨⑧⑦ |⑩-⑪-⑫-|
76
②③③② |①---|
口口口口 |②---|
④①①④ |③---|
口口口口 |④---|
77
⑦口口⑥ |①-②-③-|
口①④口 |④-⑤-⑥-|
口③②口 |⑦-⑧-⑨-|
⑤⑨⑩⑧ |⑩---|
78
⑨⑤①⑩ |①-②③|
⑤②③① |④-⑤-|
⑨④⑥⑩ |⑥⑦⑧-|
口⑦⑧口 |⑨-⑩-|
79
口⑤①口 |①-②③|
⑤②③① |④-⑤-|
口④⑥口 |⑥⑦⑧-|
⑨⑦⑧⑩ |⑨-⑩-|
80
⑤口①⑥ |①-②③|
口②③① |④-⑤⑥|
口④口口
口口口口

口⑪⑫口
口口口口
⑦口口⑧ |⑦⑧⑨⑩|
口⑨⑩口 |⑪-⑫-|
81
⑤口口口 |①-②③|
口口④口 |④-⑤⑥|
口③②⑥
口口口①

口口口口
⑧口口⑨
⑦口口口 |⑦-⑧⑨|
⑩⑪⑫⑬ |⑩⑪⑫⑬|
82
⑤②③① |①-②③|
⑨④⑥⑩ |④-⑤-|
⑦⑤①⑧ |⑥⑦⑧-|
口口口口 |⑨-⑩-|
83
⑤②③① |①-②③|
⑨④⑥口 |④-⑤-|
⑪⑤①⑩ |⑥⑦⑧-|
口⑦⑧口 |⑨⑩⑪-|
84
⑤②③① |①-②③|
口④⑥口 |④-⑤⑥|
口⑤①口
口口口口

口口口⑫
⑪口口⑩
口口口口 |⑦⑧⑨⑩|
⑨⑦⑧口 |⑪-⑫-|
85
⑥①②口 |①-②-|
口③④口 |③④--|
⑧口⑦⑤ |⑤⑥⑦⑧|
⑫⑪⑩⑨ |⑨⑩⑪⑫|
86
口⑤①⑩ |①-②③|
⑤②③① |④-⑤-|
⑦④⑥⑧ |⑥⑦⑧-|
口口口⑨ |⑨-⑩-|
87
口⑤①口 |①-②③|
⑤②③① |④-⑤-|
口④口口
口口口口

⑩口⑪口
口口口口
口口口口 |⑥⑦⑧⑨|
⑥⑦⑧⑨ |⑩-⑪-|
88
⑬口口⑨ |①②③-|
⑧①②③ |④⑤⑥⑦|
④⑤⑥⑦ |⑧⑨⑩⑪|
⑩⑫口⑪ |⑫-⑬-|
89
口②③口 |①-②③|
⑤④⑥口 |④-⑤⑥|
口口口口
口口①口

口口口口
口口口口
⑦⑧⑨⑩ |⑦⑧⑨⑩|
⑪⑫⑬⑭ |⑪⑫⑬⑭|
90
⑤②③① |①-②③|
⑤④⑥① |④-⑤-|
⑦口口⑧ |⑥⑦⑧-|
⑨口口⑩ |⑨-⑩-|
91
⑥②③① |①-②③|
口④⑦⑤ |④⑤⑥-|
⑩⑥①⑪ |⑦⑧⑨-|
⑩⑧⑨⑪ |⑩-⑪-|
92
口②③① |①-②③|
⑤④⑧⑥ |④-⑤⑥|
⑪⑦①口 |⑦⑧⑨⑩|
⑫⑨⑩口 |⑪-⑫-|
93
④③②① |①②③④|
⑦⑧⑨⑩ |⑤-⑥-|
口⑥⑤口 |⑦⑧⑨⑩|
⑭⑬⑫⑪ |⑪⑫⑬⑭|
94
③①①② |①---|
口口口口 |----|
③口口② |②---|
口口口口 |③---|
95
口②口口 |----|
①口③口 |①---|
口口口口 |②---|
②①口③ |③---|
96
口口口① |①---|
口口口口 |----|
口口口口 |----|
口口①口 |----|

不確定度: 0

最終更新:2014年05月19日 21:29