Confiserie
L.E.D. vs S-C-U

ADVANCED

Level: 10
BPM: 185
Notes: 919

1
口口口口 |----|
口口口口 |----|
口口口口 |----|
口口口口 |----|
2
①②③④ |①②③④|
⑫⑪⑩⑨ |⑤⑥⑦⑧|
⑬⑭⑮⑯ |⑨⑩⑪⑫|
⑧⑦⑥⑤ |⑬⑭⑮⑯|
3
②①①④ |①--②|
口⑥⑧口 |③-④-|
⑦口口口 |⑤-⑥-|
⑦⑤③口 |⑦-⑧-|
4
口①①⑧ |①--②|
②口口④ |③-④-|
口⑦⑥口 |⑤-⑥-|
⑦⑤③① |⑦-⑧-|
5
①⑦⑧口 |①--②|
⑪②口口 |③-④-|
⑥⑨⑩④ |⑤⑥-⑦|
口⑤③① |⑧⑨⑩⑪|
6
⑥⑭⑬⑦ |①②③④|
⑯④⑤① |⑤⑥⑦⑧|
⑧⑫⑮⑨ |⑨⑩⑪⑫|
②⑩⑪③ |⑬⑭⑮⑯|
7
②口口⑤ |①-②-|
口口③① |③-④-|
④口口⑤ |⑤-⑥-|
口⑥⑦① |⑦---|
8
口③①口 |①-②-|
③②④① |③-④-|
口④②口
口口口口

⑦口口⑧
口口口⑫
⑨口口⑥ |⑤⑥⑦⑧|
⑤⑪口⑩ |⑨⑩⑪⑫|
9
口口④口 |①②③④|
③①⑧口 |⑤⑥⑦⑧|
口⑤②口
⑦口⑥口

⑨⑪口⑫
口口口口
⑬口⑯⑩ |⑨⑩⑪⑫|
口⑮口⑭ |⑬⑭⑮⑯|
10
④口②④ |①--②|
①①口② |--③-|
口③口口 |④---|
口口③口 |----|
11
⑥②⑨⑦ |①-②③|
口⑧③口 |④-⑤-|
①④口⑤ |⑥-⑦-|
①④⑥⑧ |⑧-⑨-|
12
口口口口 |①-②-|
③⑥⑧④ |③-④-|
口口②口 |⑤-⑥-|
①③⑤⑦ |⑦-⑧-|
13
口②口口 |①-②③|
口⑦⑨③ |④-⑤-|
⑤④⑧⑥ |⑥-⑦-|
①④⑥⑧ |⑧-⑨-|
14
②③④⑤ |①--②③④|
⑥口口① |⑤-⑥-|
口口口口
①⑤口口

口口口口
口⑧口⑩
口口⑨口 |⑦-⑧-|
口口⑦⑨ |⑨-⑩-|
15
口⑤口⑥ |①-②-|
③口④⑧ |③-④-|
口口口② |⑤-⑥-|
①③⑤⑦ |⑦-⑧-|
16
⑨⑧⑦⑥ |①-②-|
口④⑤口 |③-④-|
②口③⑩ |⑤--⑥⑦⑧|
①③⑤⑨ |⑨-⑩-|
17
口口口⑦ |①-②-|
①口⑥口 |③-④-|
⑧④②口 |⑤-⑥-|
①③⑤⑦ |⑦-⑧-|
18
④口口口 |①-②-|
②⑥口⑦ |③-④-|
口口口口 |⑤-⑥-|
①③⑤口 |--⑦-|
19
⑥②⑨⑦ |①-②③|
口⑧③口 |④-⑤-|
①④口⑤ |⑥-⑦-|
①④⑥⑧ |⑧-⑨-|
20
口口口口 |①-②-|
③⑥⑧④ |③-④-|
口口②口 |⑤-⑥-|
①③⑤⑦ |⑦-⑧-|
21
口②口口 |①-②③|
口⑦⑨③ |④-⑤-|
⑤④⑧⑥ |⑥-⑦-|
①④⑥⑧ |⑧-⑨-|
22
②③④⑤ |①--②③④|
⑥口口① |⑤-⑥-|
口口口口
①⑤口口

口口口口
口⑧口⑩
口口⑨口 |⑦-⑧-|
口口⑦⑨ |⑨-⑩-|
23
口⑤口⑥ |①-②-|
③口④⑧ |③-④-|
口口口② |⑤-⑥-|
①③⑤⑦ |⑦-⑧-|
24
⑨⑧⑦⑥ |①-②-|
口④⑤口 |③-④-|
②口③⑩ |⑤--⑥⑦⑧|
①③⑤⑨ |⑨-⑩-|
25
口口口口 |①-②-|
①⑦⑥口 |③-④-|
口④②口 |⑤-⑥-|
①③⑤⑦ |⑦---|
26
口③④口 |①---|
⑨⑦⑧⑩ |②---|
⑤口口⑥ |③④⑤⑥|
①②口口 |⑦⑧⑨⑩|
27
①⑤⑥② |①--②|
⑪⑨⑩⑫ |③-④-|
⑦①口⑧ |⑤⑥⑦⑧|
④口③口 |⑨⑩⑪⑫|
28
①口⑦④ |①--②|
⑧口口⑨ |③-④-|
⑥口②口 |⑤⑥⑦-|
口③⑤⑧ |⑧-⑨-|
29
④口口⑥ |①--②|
口⑦②口 |③-④-|
口①⑧口 |⑤-⑥-|
①③⑤⑦ |⑦-⑧-|
30
口⑧⑨口 |①---|
⑥⑩⑬⑦ |②③④⑤|
④⑫⑪⑤ |⑥⑦⑧⑨|
①②③口 |⑩⑪⑫⑬|
31
①⑦⑧口 |①--②|
⑤⑨⑫⑥ |③-④-|
②⑪⑩④ |⑤⑥⑦⑧|
口③口口 |⑨⑩⑪⑫|
32
①⑦⑧口 |①--②|
⑤⑪⑩⑥ |③-④-|
②⑨⑫④ |⑤⑥⑦⑧|
口③口口 |⑨⑩⑪⑫|
33
①口口③ |①-②③|
⑤口⑩⑧ |④⑤⑥-|
②⑨口⑥ |⑦-⑧-|
口④⑦⑨ |⑨-⑩-|
34
⑫⑥③口 |①---|
口⑩⑨⑤ |②③④⑤|
⑧口①⑦ |⑥⑦⑧⑨|
②④⑬⑪ |⑩⑪⑫⑬|
35
口口②口 |①--②|
①口口口 |③-④-|
口①口口
④③口口

口⑨口口
⑪⑦⑩⑫
⑤口⑧⑥ |⑤⑥⑦⑧|
口口口口 |⑨⑩⑪⑫|
36
①口②④ |①--②|
口口⑧口 |③-④-|
⑨⑥⑦口 |⑤⑥⑦-|
口③⑤⑧ |⑧-⑨-|
37
口②⑥口 |①--②|
①⑦口④ |③-④-|
口口⑧① |⑤-⑥-|
①③⑤⑦ |⑦-⑧-|
38
⑩⑪⑫⑬ |①---|
①⑧③⑨ |②③④⑤|
④①口① |⑥⑦⑧⑨|
②⑥⑤⑦ |⑩⑪⑫⑬|
39
⑦口口⑧ |①-②-|
①口口口 |③-④-|
⑤①②⑥ |⑤-⑥-|
③口口④ |⑦-⑧-|
40
口①口口 |①-②-|
④口①⑤ |③-④-|
⑥①口⑦ |⑤-⑥-|
⑧②①③ |⑦-⑧-|
41
口③②口 |①---②-|
口①①口 |--③---|
口①①口
口③②口

⑥口口⑥
④口口④
⑤⑥⑥⑤ |④---⑤-|
口口口口 |--⑥---|
42
口①②口 |----|
口口口口 |----|
口口口口 |----|
口口口口 |--①②|
43
⑫⑪⑩① |①-②③|
口②③⑦ |-④⑤⑥|
口⑧⑨口 |⑦-⑧⑨|
⑥⑤④口 |-⑩⑪⑫|
44
口口口口 |①-②③|
④⑤⑥⑦ |④⑤⑥⑦|
口口口①
口③②口

口口⑩⑨
口口口口
⑪⑫⑬⑭ |⑧-⑨⑩|
⑧口口口 |⑪⑫⑬⑭|
45
①②⑫⑪ |①②③④|
⑨⑩⑧⑦ |⑤⑥⑦⑧|
⑬⑭⑯⑮ |⑨⑩⑪⑫|
⑥⑤④③ |⑬⑭⑮⑯|
46
①口口口 |①---|
⑥⑦⑧⑨ |----|
口口口口 |②③④⑤|
②③④⑤ |⑥⑦⑧⑨|
47
①①口② |①-②③|
⑪⑫⑬⑭ |-④⑤⑥|
③⑥⑤④ |⑦⑧⑨⑩|
⑦⑧⑨⑩ |⑪⑫⑬⑭|
48
①③③② |①--②|
口口口口 |--③-|
①口口② |④---|
④口口④ |----|
49
⑤⑥⑯⑮ |①②③④|
⑬⑭⑧⑦ |⑤⑥⑦⑧|
①②③④ |⑨⑩⑪⑫|
⑨⑩⑫⑪ |⑬⑭⑮⑯|
50
②口口口 |①-②③|
口口口⑤ |-④⑤-|
①①⑥③ |⑥---|
④⑥口口 |----|
51
①②⑫⑪ |①②③④|
⑨⑩⑧⑦ |⑤⑥⑦⑧|
⑬⑭⑯⑮ |⑨⑩⑪⑫|
⑤⑥④③ |⑬⑭⑮⑯|
52
①②⑫⑪ |①②③④|
⑨⑩⑧⑦ |⑤⑥⑦⑧|
⑬⑭⑮⑯ |⑨⑩⑪⑫|
⑤⑥④③ |⑬⑭⑮⑯|
53
①②⑫⑪ |①②③④|
⑨⑩⑧⑦ |⑤⑥⑦⑧|
⑬⑭⑯⑮ |⑨⑩⑪⑫|
⑥⑤④③ |⑬⑭⑮⑯|
54
①⑧⑨口 |①---|
⑫⑥⑦⑬ |②③④⑤|
⑩口口⑪ |⑥⑦⑧⑨|
⑤④③② |⑩⑪⑫⑬|
55
①⑥⑦口 |①-②③|
口⑧⑨口 |-④⑤-|
⑩③②⑪ |⑥⑦⑧⑨|
⑫⑤④⑬ |⑩⑪⑫⑬|
56
②④④① |①--②|
①口口② |--③-|
⑦①②⑧ |④---|
⑤③③⑥ |⑤⑥⑦⑧|
57
①⑥⑥② |①--②|
③①②③ |--③-|
口④⑤口 |④--⑤|
口⑤④口 |--⑥-|
58
②口口③ |①--②|
②①①③ |--③-|
⑤④④⑥ |④--⑤|
②⑤⑥③ |--⑥-|
59
⑪①①⑦ |①---|
⑫②③⑧ |②③④⑤|
⑬④⑤⑨ |⑥--⑦⑧⑨|
口⑥口⑩ |⑩--⑪⑫⑬|
60
口口口口 |①---|
口④口口 |----|
口口口③ |--②-|
①②口口 |③-④-|
61
口①①口 |①--②|
⑤口口② |--③-|
口①①⑥ |--④-|
③口口④ |⑤-⑥-|
62
③①口④ |①--②|
口③口口 |--③-|
⑤口口口 |--④-|
口口②⑥ |⑤-⑥-|
63
口口④口 |①--②|
口⑤口口 |--③-|
口口②⑥ |--④-|
③①口口 |⑤-⑥-|
64
⑤口口② |----|
口口口口 |--①-|
口口口口 |②-③-|
④①口③ |④-⑤-|
65
口②①口 |①-②-|
口④③口 |③-④-|
口⑥⑤口 |⑤-⑥-|
口⑧⑦口 |⑦-⑧-|
66
②口口① |①-②-|
④口口③ |③-④-|
⑥口口⑤ |⑤-⑥-|
⑧口口⑦ |⑦-⑧-|
67
口口②② |①---②-|
口①③口 |--③---|
口①③口
口①①口

⑥口口口
⑥⑥口④
⑥⑥口⑤ |④---⑤-|
⑥口口口 |--⑥---|
68
口口口口 |----|
口口口口 |----|
口口口口 |----|
口口口口 |----|
69
口口①① |①---②-|
口口①口 |--③---|
口口口②
口口③③

⑥④口⑥
④⑥⑥口
⑤口口口 |④---⑤-|
口⑤口口 |--⑥---|
70
口口口口 |----|
口口口口 |----|
口口口口 |----|
口口口口 |----|
71
⑫⑪⑩① |①-②③|
口②③⑦ |-④⑤⑥|
口⑧⑨口 |⑦-⑧⑨|
⑥⑤④口 |-⑩⑪⑫|
72
口口口口 |①-②③|
④⑤⑥⑦ |④⑤⑥⑦|
口口口①
口③②口

口口⑩⑨
口口口口
⑪⑫⑬⑭ |⑧-⑨⑩|
⑧口口口 |⑪⑫⑬⑭|
73
①②⑫⑪ |①②③④|
⑨⑩⑧⑦ |⑤⑥⑦⑧|
⑬⑭⑯⑮ |⑨⑩⑪⑫|
⑥⑤④③ |⑬⑭⑮⑯|
74
①口口口 |①---|
⑥⑦⑧⑨ |----|
口口口口 |②③④⑤|
②③④⑤ |⑥⑦⑧⑨|
75
①①口② |①-②③|
⑪⑫⑬⑭ |-④⑤⑥|
③⑥⑤④ |⑦⑧⑨⑩|
⑦⑧⑨⑩ |⑪⑫⑬⑭|
76
①③③② |①--②|
口口口口 |--③-|
①口口② |④---|
④口口④ |----|
77
口④④口 |①--②|
⑥①①③ |--③-|
口②⑤② |④--⑤|
口⑥③口 |--⑥-|
78
①⑪⑫② |①②③④|
⑬③④⑭ |⑤⑥⑦⑧|
⑤⑨⑩⑥ |⑨⑩⑪⑫|
⑦⑮⑯⑧ |⑬⑭⑮⑯|
79
①⑤⑥② |①-②-|
⑦③④口 |③-④-|
口口口口 |⑤-⑥-|
口口口⑧ |⑦-⑧-|
80
口口口口 |①②③④|
口③口⑥ |⑤⑥⑦⑧|
口⑦⑧④
⑤①②口

⑬⑫⑪⑩
口口口口
⑨口口口 |⑨--⑩⑪⑫|
口⑭⑮⑯ |⑬--⑭⑮⑯|
81
⑤④③② |----|
口①①口 |①---|
口①①口 |②③④⑤--|
⑥⑦⑧口 |---⑥⑦⑧|
82
口口口口 |①-②-|
②④④② |③-④-|
③④④③ |----|
口口口① |----|

不確定度: 0

最終更新:2014年06月20日 02:43