Plan 8
Ryu☆

EXTREME

Level: 10
BPM: 212
Notes: 888

1
口口口口 |----|
口口口口 |----|
口口口口 |----|
口口口口 |----|
2
口口④口 |①---|
口口③口 |②---|
口口②口 |③---|
①口①① |④---|
3
口口⑤口 |①---|
④⑥③口 |②---|
③⑤②口 |③-④-|
口口①口 |⑤-⑥-|
4
口口口④ |①---|
口口口③ |②---|
口口口② |③---|
口口①① |④---|
5
口口口⑤ |①---|
④⑥口③ |②---|
③⑤口② |③-④-|
口口口① |⑤-⑥-|
6
口口④口 |①---|
口口口③ |②---|
口口②口 |③---|
①口①① |④---|
7
口口口⑤ |①---|
④⑥③口 |②---|
③⑤口② |③-④-|
口口①口 |⑤-⑥-|
8
口⑧口⑦ |①-②-|
⑥口⑤④ |③-④-|
口口③口 |⑤-⑥-|
①②口口 |⑦-⑧-|
9
⑬⑭⑮⑯ |①②③④|
⑫⑪⑩⑨ |⑤⑥⑦⑧|
⑤⑥⑦⑧ |⑨⑩⑪⑫|
④③②① |⑬⑭⑮⑯|
10
口口口口 |----|
口口口口 |----|
口口口口 |----|
①口口口 |①---|
11
①①④③ |①---|
口口口口 |②---|
口口④③ |③-④-|
⑤⑤②② |⑤---|
12
⑥口口⑤ |①-②-|
口口③④ |③-④-|
①②口口 |⑤---|
口口⑥⑥ |⑥---|
13
口口④③ |①---|
①①④③ |②---|
口⑤②② |③-④-|
口口口口 |⑤---|
14
口口⑥⑤ |①-②-|
口口⑦⑧ |③-④-|
⑥⑧③④ |⑤-⑥-|
⑤⑦②① |⑦-⑧-|
15
③④口口 |①---|
①①⑤口 |②---|
口口口口 |③-④-|
口口⑤② |⑤---|
16
⑤口口⑥ |①-②-|
④③口口 |③-④-|
口口②① |⑤---|
⑥⑥口口 |⑥---|
17
⑤⑥口口 |①-②-|
口口⑦① |③-④-|
③③②④ |⑤-⑥-|
⑧口口① |⑦-⑧-|
18
⑤⑥③④ |①-②-|
①②⑦口 |③-④-|
⑤⑥③④ |⑤-⑥-|
口②⑦口 |⑦---|
19
⑦口口⑥ |①-②-|
③口口② |③-④-|
⑤口口⑧ |⑤-⑥-|
①口口④ |⑦-⑧-|
20
口⑦⑧口 |①-②-|
口⑤⑥口 |③-④-|
口①②口 |⑤-⑥-|
口③④口 |⑦-⑧-|
21
⑦口口⑥ |①-②-|
③口口② |③-④-|
⑤口口⑧ |⑤-⑥-|
①口口④ |⑦-⑧-|
22
⑦⑦⑧口 |①-②-|
口⑤⑥口 |③-④-|
口①②口 |⑤-⑥-|
口③④口 |⑦-⑧-|
23
⑦口口⑥ |①-②-|
③口口② |③-④-|
⑤①口⑧ |⑤-⑥-|
①口口④ |⑦-⑧-|
24
口⑦⑧口 |①-②-|
口⑤⑥口 |③-④-|
口①②口 |⑤-⑥-|
口③④口 |⑦-⑧-|
25
口口口⑧ |①-②-|
口口口⑦ |③-④-|
②①⑤⑥ |⑤-⑥-|
①口④③ |⑦-⑧-|
26
④⑤⑫口 |①②③④|
③⑥⑪口 |⑤⑥⑦⑧|
②⑦⑩口 |⑨⑩⑪⑫|
①⑧⑨口 |----|
27
④⑧口口 |①-②-|
③⑦⑦③ |③-④-|
②⑥口口 |⑤-⑥-|
①⑤⑤① |⑦-⑧-|
28
④⑧口口 |①-②-|
③⑦⑦③ |③-④-|
②⑥口口 |⑤-⑥-|
①⑤⑤① |⑦-⑧-|
29
口口⑧④ |①-②-|
③⑦⑦③ |③-④-|
口口⑥② |⑤-⑥-|
①⑤⑤① |⑦-⑧-|
30
口口⑧④ |①-②-|
③⑦⑦③ |③-④-|
口口⑥② |⑤-⑥-|
①⑤⑤① |⑦-⑧-|
31
④⑧口口 |①-②-|
③⑦⑦③ |③-④-|
②⑥口口 |⑤-⑥-|
①⑤⑤① |⑦-⑧-|
32
④⑧口口 |①-②-|
③⑦⑦③ |③-④-|
②⑥口口 |⑤-⑥-|
①⑤⑤① |⑦-⑧-|
33
口口⑧④ |①-②-|
③⑦⑦③ |③-④-|
口口⑥② |⑤-⑥-|
①⑤⑤① |⑦-⑧-|
34
口口口口 |①-②-|
口⑦⑧口 |③-④-|
①⑤⑥② |⑤-⑥-|
③口口④ |⑦-⑧-|
35
③口④④ |①-②-|
⑤口口② |③---|
①口⑥⑥ |④--⑤|
⑦口口口 |⑥-⑦-|
36
⑥⑤⑤⑥ |①-②-|
口④③③ |③---|
口⑦⑦口 |④--⑤|
口②①① |⑥-⑦-|
37
口口口口 |①-②-|
③口④④ |③---|
①⑦口① |④--⑤|
②⑤⑥⑥ |⑥-⑦-|
38
⑥⑤⑤⑥ |①-②-|
③②④口 |③---|
口⑦⑦① |④--⑤|
口口口口 |⑥-⑦-|
39
⑤口⑥⑥ |①-②-|
④口口口 |③---|
①⑦口① |④--⑤|
②口口③ |⑥-⑦-|
40
⑥⑤⑤⑥ |①-②-|
口⑦⑦口 |③---|
④口①① |④--⑤|
口②③口 |⑥-⑦-|
41
⑤口⑥⑥ |①-②-|
①⑦口① |③---|
口口④口 |④--⑤|
口③口② |⑥-⑦-|
42
⑥口口口 |--①-|
口口口口 |②---|
②④口口 |③--④|
①③口⑤ |⑤-⑥-|
43
⑧⑥④② |①-②-|
⑦⑤③① |③-④-|
口口口口 |⑤-⑥-|
口口口口 |⑦-⑧-|
44
口口口口 |①-②-|
口口口口 |③-④-|
②④⑥⑧ |⑤-⑥-|
①③⑤⑦ |⑦-⑧-|
45
⑧⑥④② |①-②-|
⑦⑤③① |③-④-|
口口口口 |⑤-⑥-|
口口口口 |⑦-⑧-|
46
口口口口 |①-②-|
⑦口口口 |③-④-|
②④⑥⑧ |⑤-⑥-|
①③⑤⑦ |⑦-⑧-|
47
⑧⑥④② |①-②-|
⑦⑤③① |③-④-|
口口口口 |⑤-⑥-|
①口口口 |⑦-⑧-|
48
口口口口 |①-②-|
口口口口 |③-④-|
②④⑥⑧ |⑤-⑥-|
①③⑤⑦ |⑦-⑧-|
49
③⑤⑥④ |①-②-|
①⑦⑧② |③-④-|
口口口口 |⑤-⑥-|
口口口口 |⑦-⑧-|
50
⑪⑬口⑫ |①②③④|
⑨口口⑩ |⑤⑥⑦⑧|
⑦①②⑧ |⑨⑩⑪⑫|
⑤③④⑥ |⑬---|
51
口口①口 |①---|
口口④③ |②---|
口⑤口口 |③-④-|
②②④③ |⑤---|
52
⑤口口⑥ |①-②-|
④③口口 |③-④-|
⑥⑥②① |⑤---|
口口口口 |⑥---|
53
口①口口 |①---|
③④口口 |②---|
口口⑤口 |③-④-|
③④②② |⑤---|
54
①②⑥⑤ |①-②-|
口口⑦⑧ |③-④-|
⑥⑧口④ |⑤-⑥-|
⑤⑦口③ |⑦-⑧-|
55
①口④③ |①---|
口⑤口口 |②---|
口口④③ |③-④-|
口口②② |⑤---|
56
口口口⑤ |①-②-|
⑥口③④ |③-④-|
①②口口 |⑤---|
口口⑥⑥ |⑥---|
57
③④①口 |①---|
口口⑤口 |②---|
③④口口 |③-④-|
②②口口 |⑤---|
58
口口⑥⑤ |①-②-|
口口⑦⑧ |③-④-|
⑥⑧③④ |⑤-⑥-|
⑤⑦②① |⑦-⑧-|
59
①口⑥⑤ |①-②-|
口口⑦⑧ |③-④-|
⑥⑧③④ |⑤-⑥-|
⑤⑦②① |⑦-⑧-|
60
口口⑥⑤ |①-②-|
口口⑦⑧ |③-④-|
⑥⑧③④ |⑤-⑥-|
⑤⑦②① |⑦-⑧-|
61
②④⑥⑤ |①-②-|
①③⑦⑧ |③-④-|
⑥⑧③④ |⑤-⑥-|
⑤⑦②① |⑦-⑧-|
62
②④⑥⑤ |①-②-|
①③⑦口 |③-④-|
⑥口③④ |⑤-⑥-|
⑤⑦②① |⑦---|
63
⑦⑧⑧⑦ |①-②-|
⑥⑤口口 |③-④-|
口④③口 |⑤-⑥-|
口口②① |⑦-⑧-|
64
⑬口口⑬ |①②③④|
⑫⑪⑩⑨ |⑤⑥⑦⑧|
⑤⑥⑦⑧ |⑨⑩⑪⑫|
④③②① |⑬---|
65
口口口口 |----|
口口①口 |----|
口口口口 |----|
口口口口 |①---|
66
①口口口 |①---|
口口口口 |----|
口口口① |----|
口口口口 |----|
67
口口口口 |①---|
口①口口 |----|
口口②口 |②---|
口口口口 |----|
68
口口①口 |①---|
口口口① |----|
口口口口 |----|
口口口口 |----|
69
口口口口 |①---|
口口口口 |----|
口①③口 |②---|
口②口口 |③---|
70
口①口口 |①---|
①口口口 |----|
口口口口 |----|
口口口口 |----|
71
口口口① |①---|
口口②口 |----|
口口口口 |②---|
口口口口 |----|
72
②口口口 |①---|
口口口口 |----|
①口口口 |----|
口①口口 |②---|
73
口口口口 |①---|
口②①口 |②---|
口④③口 |③---|
口口口口 |④---|
74
口口口口 |①---|
口口口口 |----|
口口口① |----|
口口①口 |----|
75
①口口口 |①---|
口②口口 |----|
口口口口 |②---|
口口口口 |----|
76
口口口口 |①---|
口口口口 |----|
口口口① |----|
口口①口 |----|
77
口口口口 |①---|
口③口口 |----|
口口②口 |②---|
①口口口 |③---|
78
口口①口 |①---|
口口口① |----|
口口口口 |----|
口口口口 |----|
79
口②①口 |①---|
①口口② |----|
②口口① |②---|
口①②口 |----|
80
口口口口 |①---|
口①①口 |----|
口①①口 |----|
口口口口 |----|
81
口口口口 |----|
口口口口 |----|
口口口口 |①---|
口①口口 |----|
82
②口①③ |①---|
⑤口口④ |②---|
③口⑤① |③-④-|
①口⑥口 |⑤-⑥-|
83
②口口口 |①---|
④口口口 |②---|
③④口口 |③---|
①口口③ |④---|
84
②口④口 |①---|
⑤⑥①① |②---|
③口③口 |③-④-|
①口口口 |⑤-⑥-|
85
②口口口 |①---|
④口口口 |②---|
③口口口 |③---|
①③④③ |④---|
86
②③①① |①---|
⑤④口口 |②---|
③口⑤口 |③-④-|
①口⑥口 |⑤-⑥-|
87
②口口口 |①---|
④口口口 |②---|
③④口口 |③---|
①③口口 |④---|
88
④口口口 |①-②-|
⑧①①⑦ |③-④-|
⑥口口⑤ |⑤-⑥-|
②口口③ |⑦-⑧-|
89
⑯⑧⑦⑮ |①②③④|
⑭⑥⑤⑬ |⑤⑥⑦⑧|
⑫④③⑪ |⑨⑩⑪⑫|
⑩②①⑨ |⑬⑭⑮⑯|
90
口口口口 |----|
口口①口 |①---|
口口②口 |②---|
③口③③ |③---|
91
①口①① |①-②-|
②口⑥⑤ |③-④-|
④⑧⑦③ |⑤-⑥-|
口口口口 |⑦-⑧-|
92
⑧口口口 |①-②-|
⑥口口口 |③-④-|
④口⑦③ |⑤-⑥-|
②口⑤① |⑦-⑧-|
93
⑧②⑧① |①-②-|
口④①③ |③-④-|
口⑦口⑥ |⑤-⑥-|
口口口⑤ |⑦-⑧-|
94
口口口口 |①-②-|
①口②口 |③-④-|
⑤⑧⑤口 |⑤-⑥-|
③⑥④⑦ |⑦-⑧-|
95
口④①口 |①-②-|
口②③① |③-④-|
口口⑥⑤ |⑤-⑥-|
⑧⑦⑤口 |⑦-⑧-|
96
④口口口 |①-②-|
⑧⑦⑦③ |③-④-|
②⑤口⑥ |⑤-⑥-|
口口口① |⑦-⑧-|
97
口①①① |①-②-|
口口⑧口 |③-④-|
⑦口⑥⑧ |⑤-⑥-|
②④⑤③ |⑦-⑧-|
98
③口②④ |①-②-|
①口口② |③-④-|
口口口口 |⑤---|
⑤⑤⑥口 |⑥---|
99
⑦⑧⑥⑤ |①-②-|
⑧⑦⑤⑥ |③-④-|
③①①④ |⑤-⑥-|
口口口② |⑦-⑧-|
100
口口口⑤ |①-②-|
⑧口⑤⑦ |③-④-|
③⑥⑦④ |⑤-⑥-|
①口口② |⑦-⑧-|
101
⑤口口⑥ |①-②-|
口⑤⑥口 |③-④-|
⑦⑧⑧④ |⑤-⑥-|
③①①② |⑦-⑧-|
102
⑥⑧口⑦ |①-②-|
④口口口 |③-④-|
口口口⑤ |⑤-⑥-|
⑦②①③ |⑦-⑧-|
103
口口①口 |①-②-|
④⑤口① |③-④-|
⑤⑥③口 |⑤-⑥-|
口②⑦⑧ |⑦-⑧-|
104
口口口⑧ |①-②-|
口⑦⑦④ |③-④-|
⑥口⑤② |⑤-⑥-|
①③口口 |⑦-⑧-|
105
①①①口 |①-②-|
③口⑧④ |③-④-|
⑥口口② |⑤-⑥-|
⑤⑤口⑦ |⑦-⑧-|
106
③口②④ |①-②-|
口⑤口口 |③-④-|
口①⑤口 |⑤---|
口口口口 |----|
107
口①口口 |①---|
①口①口 |----|
口①口① |----|
口口①口 |----|

不確定度: 0

最終更新:2014年06月20日 02:39