恋閃繚乱
2B-Waves

BASIC

Level: 5
BPM: 142
Notes: 335

1
口口口口 |----|
口口口口 |----|
口口口口 |----|
口口口口 |----|
2
口口口口 |----|
口口口口 |----|
口口口口 |----|
口口口口 |----|
3
④口④口 |①---|
口③口③ |②---|
②口②口 |③---|
口①口① |④---|
4
口④口④ |①---|
③口③口 |②---|
口②口② |③---|
①口①口 |④---|
5
④口④口 |①---|
口③口③ |②---|
②口②口 |③---|
口①口① |④---|
6
口⑤⑥口 |①---|
口③④口 |②---|
口②②口 |③-④-|
口①①口 |⑤-⑥-|
7
①口③口 |①---|
口②口④ |②---|
①口③口 |③---|
口②口④ |④---|
8
口②口④ |①---|
①口③口 |②---|
口②口④ |③---|
①口③口 |④---|
9
①口③口 |①---|
口②口④ |②---|
①口③口 |③---|
口②口④ |④---|
10
口⑤⑥口 |①---|
口③④口 |②---|
口②②口 |③-④-|
口①①口 |⑤-⑥-|
11
口口④口 |①---|
口③口口 |②---|
口口②口 |③---|
口①口口 |④---|
12
口口④④ |①---|
口口口口 |②--③|
口②③③ |--④-|
①口口口 |----|
13
口④口口 |①---|
口口③口 |②---|
口②口口 |③---|
口口①口 |④---|
14
②口口② |①---|
④口口④ |②---|
①③③① |③---|
口口口口 |④---|
15
口①口口 |①---|
口口②口 |②---|
口③口口 |③---|
口口④口 |④---|
16
①口口口 |①---|
口②④④ |②--③|
口口口口 |--④-|
口口③③ |----|
17
口口①口 |①---|
口②口口 |②---|
口口③口 |③---|
口④口口 |④---|
18
口口口口 |①---|
①③③① |②---|
口口口口 |③---|
②④④② |④---|
19
④口④③ |①---|
③口口② |②---|
②口口① |③---|
①口口口 |④---|
20
③④口④ |①---|
②口口③ |②---|
①口口② |③---|
口口口① |④---|
21
口③③口 |①---|
口②口口 |②---|
口口④口 |③---|
口①①口 |④---|
22
口③③口 |①---|
口口口口 |--②-|
①②②① |③---|
口口口口 |----|
23
①口口② |①---|
口③④口 |②---|
口口口口 |③---|
口口口口 |④---|
24
口口口口 |①---|
口口口口 |②---|
①口口② |③---|
口③④口 |④---|
25
口口口口 |①---|
口口口口 |--②-|
①口口①
口②②口

口口口口
口③③口
④⑤⑤④ |③---|
口口口口 |④-⑤-|
26
口②②口 |--①-|
口①①口 |②---|
口④口口 |③---|
口口③口 |④---|
27
口口④口 |①---|
口③口口 |②---|
口口②口 |③---|
口①口口 |④---|
28
口口②② |①---|
口口②② |----|
①①口口 |②---|
①①口口 |----|
29
口④口口 |①---|
口口②口 |②---|
口口③口 |③---|
口①口口 |④---|
30
口口口口 |①---|
③口口口 |----|
口口口② |②---|
口口①口 |③---|
31
④③③④ |①---|
口口②口 |②---|
口①口口 |③---|
口口口口 |④---|
32
②②口口 |①---|
②②口口 |----|
口口①① |②---|
口口①① |----|
33
口口④口 |①---|
口②口口 |②---|
口③口口 |③---|
口口①口 |④---|
34
口②②口 |①---|
④口口④ |----|
③口口③ |②--③|
口①口口 |--④-|
35
①口口① |①---|
口口口口 |----|
口口口口 |----|
口口口口 |----|
36
口口口口 |①---|
①口③口 |②---|
口②口④ |③---|
口口口口 |④---|
37
口④②口 |①---|
口口口口 |②---|
口①③口 |③---|
口口口口 |④---|
38
口口口口 |①---|
①②③④ |②---|
口口口口 |③---|
口口口口 |④---|
39
口口口口 |①---|
口口③③ |②---|
口②②口 |③---|
①①口口 |----|
40
口③口口 |①---|
②口④口 |②---|
口①口口 |③---|
口口口口 |④---|
41
口口②口 |①---|
口①口③ |②---|
口口④口 |③---|
口口口口 |④---|
42
口口口④ |①---|
口②③④ |②---|
①②③口 |③---|
①口口口 |④---|
43
④口口口 |①---|
④③②口 |②---|
口③②① |③---|
口口口① |④---|
44
口口口① |①---|
口口③口 |②---|
口口口② |③---|
口口④口 |④---|
45
口①口口 |①---|
③口口口 |②---|
口②口口 |③---|
④口口口 |④---|
46
口口口口 |①---|
口口口口 |②---|
口④口③ |③---|
口②口① |④---|
47
口③③口 |①---|
口①①口 |--②-|
口口口口 |③---|
口②口口 |----|
48
口口口口 |①---|
口口口口 |----|
①①①口 |②---|
口口②口 |----|
49
口口口口 |①---|
口①①① |----|
口②口口 |②---|
口口口口 |----|
50
口②②② |①---|
口口口口 |----|
口口口口 |②---|
①①①口 |----|
51
口口口口 |①---|
口①①口 |----|
口①①口 |----|
口口口口 |----|
52
口口口口 |①---|
口①口② |②---|
③口④口 |③---|
口口口口 |④---|
53
口口口口 |----|
口口口口 |----|
口口口口
口口口口
54
口口②② |①---|
口口②② |----|
①①口口 |②---|
①①口口 |----|
55
口④口口 |①---|
口口②口 |②---|
口口③口 |③---|
口①口口 |④---|
56
口口口口 |①---|
③口口口 |----|
口口口② |②---|
口口①口 |③---|
57
④③③④ |①---|
口口②口 |②---|
口①口口 |③---|
口口口口 |④---|
58
②②口口 |①---|
②②口口 |----|
口口①① |②---|
口口①① |----|
59
口口④口 |①---|
口②口口 |②---|
口③口口 |③---|
口口①口 |④---|
60
口②②口 |①---|
④口口④ |----|
③口口③ |②--③|
口①口口 |--④-|
61
①口口① |①---|
②②②口 |----|
口③③③ |②---|
口口口口 |③---|


不確定度: 0

最終更新:2013年02月26日 21:34