幸せのかたち
あさき

EXTREME

Level: 9
BPM: 119
Notes: 612

实际BPM: 238
1
口口口口 |----|
口口口口 |----|
口口口口 |----|
口口口口 |----|
2
⑤口口口 |①---|
①口⑤口 |②---|
⑤口②口 |③---|
①口④③ |④-⑤-|
3
口口②① |----|
口口口③ |①---|
口口口口 |②---|
口口口口 |③---|
4
口⑤口口 |①---|
口①⑤口 |②---|
口⑤②口 |③---|
口①④③ |④-⑤-|
5
口口②① |----|
口口口③ |①---|
口口口口 |②---|
口口口口 |③---|
6
⑤口口口 |①---|
①口⑤口 |②---|
⑤口②口 |③---|
①③④③ |④-⑤-|
7
口口②① |----|
口④口③ |①---|
口口口口 |②---|
口④口口 |③-④-|
8
口④口口 |----|
口口④口 |①---|
口④①口 |②---|
口口③② |③-④-|
9
③口口① |----|
口④口② |①---|
②口口口 |②---|
①口④③ |③-④-|
10
口口口口 |--①-|
③口口④ |②---|
口口②口 |③---|
口①口⑤ |④-⑤-|
11
口口⑤口 |--①-|
⑥③①⑥ |②---|
②口④口 |③-④-|
口口口口 |⑤-⑥-|
12
口口口口 |--①-|
口口口口 |②---|
口④口口 |--③-|
③②⑤① |④-⑤-|
13
③①口口 |--①-|
口④②⑥ |②---|
口口⑤口 |③-④-|
口口口口 |⑤-⑥-|
14
口口④口 |①-②-|
⑤口口口 |③---|
②⑥口③ |④---|
口①口口 |⑤-⑥-|
15
口口口口 |--①-|
口④⑤④ |②---|
③口③口 |③---|
口②①② |④-⑤-|
16
⑥④⑥口 |--①-|
③口口口 |②---|
⑤②⑤口 |③-④-|
①口口口 |⑤-⑥-|
17
口口口口 |----|
口①口② |①-②-|
⑥③⑥④ |③-④-|
口⑤口口 |⑤-⑥-|
18
④①③② |--①-|
口④②口 |②---|
口⑤口口 |③-④-|
口口口口 |--⑤-|
19
口④口⑤ |①---|
口口⑤口 |②-③-|
③口②① |④-⑤-|
⑥③①⑥ |--⑥-|
20
口口口口 |----|
口②口② |①---|
口①口① |--②-|
口口口口 |----|
21
②②口口 |①-②-|
①口口口 |③-④-|
口口④④ |----|
口⑤⑤③ |--⑤-|
22
口口口口 |----|
口①①口 |①---|
口口口口 |②---|
②口口② |----|
23
口②口口 |①---|
①口③口 |②---|
口⑤口④ |③---|
口口口口 |④-⑤-|
24
口口口口 |①---|
口③口③ |②---|
①口①口 |③---|
口口②口 |----|
25
口④①④ |①---|
口口③口 |②---|
口口口口 |③---|
②口口口 |--④-|
26
口口口口 |①---|
口③口③ |②---|
④口①口 |③---|
口②口② |④---|
27
口①口③ |①---|
口④口口 |②---|
口口②口 |③---|
口⑤口口 |④-⑤-|
28
口③口口 |①---|
③口③口 |②---|
口③口① |③---|
②口②口 |----|
29
⑤口④⑤ |①---|
口③口口 |②---|
口口②口 |③---|
口①口① |④-⑤-|
30
口①口口 |----|
口口②口 |①---|
④③口④ |②---|
口口口口 |③-④-|
31
口口口口 |----|
口①口① |①---|
口口②口 |②---|
④③口④ |③-④-|
32
①口①口 |----|
口②口口 |①---|
④口③④ |②---|
口口口口 |③-④-|
33
口口口口 |----|
②口口③ |①---|
口④口口 |②---|
口①口口 |③-④-|
34
口②口② |----|
口口口口 |①---|
口口口口 |②---|
①口①口 |----|
35
②口①口 |①---|
③①口③ |----|
①口②口 |②---|
口口口口 |--③-|
36
口②口口 |----|
口口口口 |①---|
口口②② |----|
①①①① |②---|
37
口口⑤⑤ |①---|
口③②② |②---|
①口口口 |③---|
④口③③ |④-⑤-|
38
口口口口 |----|
口口口口 |----|
口口口口 |----|
口口口口 |----|
39
口口口口 |----|
口口口口 |----|
①①①① |----|
②②②② |①-②-|
40
口口口口 |----|
口口口口 |----|
口口口口 |----|
口口口口 |----|
41
口口口① |----|
④口②口 |----|
口④口③ |①-②-|
口口④口 |③-④-|
42
①口口口 |----|
口②口④ |----|
③口④口 |①-②-|
口④口口 |③-④-|
43
口口口① |----|
④口②口 |----|
口④口③ |①-②-|
口口④口 |③-④-|
44
口口④口 |----|
口④口③ |----|
④口②口 |①-②-|
口口口① |③-④-|
45
③②口① |----|
②口①④ |①---|
口①口② |②---|
①④②③ |③-④-|
46
口口口口 |----|
口口口口 |----|
口口口口 |----|
口口口口 |----|
47
③②口① |----|
②口①④ |①---|
口①口② |②---|
①④②③ |③-④-|
48
口口①② |----|
口口②口 |①---|
①②口口 |----|
②口口口 |②---|
49
②①④口 |①---|
①⑤口③ |②---|
④口⑤① |③---|
口③①② |④-⑤-|
50
口③口② |----|
③口①口 |①---|
口①口③ |----|
②口③口 |②-③-|
51
①口③口 |----|
口④口② |①---|
③口④口 |②---|
口②口① |③-④-|
52
口口口① |----|
口口口口 |①---|
口口口口 |----|
①口口口 |----|
53
口②②口 |----|
③口口④ |①---|
口①①口 |②---|
④口口③ |③-④-|
54
③口口④ |----|
口①①口 |①---|
④口口③ |②---|
口②②口 |③-④-|
55
口①①口 |----|
③口口④ |①---|
口②②口 |②---|
④口口③ |③-④-|
56
③口口④ |----|
口①①口 |①---|
④口口③ |②---|
口②②口 |③-④-|
57
口①①口 |----|
③口口④ |①---|
口②②口 |②---|
④口口③ |③-④-|
58
口②口口 |----|
②口口口 |----|
口口口① |----|
口口①口 |①-②-|
59
①口③口 |----|
口口口② |①---|
③口口口 |②---|
口②口① |③---|
60
口口口① |----|
口口①口 |①---|
口①口口 |----|
①口口口 |----|
61
口①口口 |----|
①口口口 |----|
口口口① |--①-|
口口①口 |----|
62
口口口① |①---|
口口①口 |----|
口①口口 |----|
①口口口 |----|
63
口口口口 |----|
口口口口 |①---|
口③口④ |②---|
②口①口 |③-④-|
64
①口②口 |----|
口③口④ |①---|
②口①口 |②---|
口④口③ |③-④-|
65
口③口口 |----|
①口②口 |①---|
口口口③ |②---|
②口①口 |③---|
66
口口口① |①---|
口口口口 |----|
口①口口 |----|
②②②② |②---|
67
①口②② |--①-|
③④口口 |②---|
口口⑤⑤ |③-④-|
口口口口 |⑤---|
68
④口口口 |①---|
口口②② |②-③-|
①⑥口口 |--④-|
③口⑤⑤ |⑤-⑥-|
69
口口①口 |--①-|
口④④③ |②---|
②口口② |③---|
③口口口 |④---|
70
口口口口 |①---|
①口口口 |----|
口口口口 |----|
口口口① |----|
71
②③口① |①---|
③口口口 |--②-|
口口口③ |----|
①口③② |③---|
72
口口口① |----|
口口①口 |①---|
口①口口 |----|
①口口口 |----|
73
②③①口 |①---|
③口口① |--②-|
①口口③ |----|
口①③② |③---|
74
口口口① |①---|
口口①口 |----|
口①口口 |----|
①口口口 |----|
75
②③①④ |----|
③口④① |①---|
①④口③ |②---|
④①③② |③-④-|
76
口口口口 |----|
口①口口 |----|
口口②口 |--①-|
口③口口 |②-③-|
77
口口③口 |----|
口③口③ |----|
②口③口 |①---|
口口口① |②-③-|
78
口口口② |----|
口口口口 |①---|
口口口④ |②---|
③①口口 |③-④-|
79
口①④口 |----|
①④①④ |①---|
③①④口 |②---|
口口口② |③-④-|
80
口①口① |----|
②口②口 |----|
口③口③ |--①-|
口口口口 |②-③-|
81
②口口口 |----|
口④口③ |①---|
④口④口 |②---|
①④①口 |③-④-|
82
口口口② |----|
③口④口 |①---|
口④口④ |②---|
口口④① |③-④-|
83
②口口口 |----|
口④口③ |①---|
④口④口 |②---|
①④口口 |③-④-|
84
口①口① |----|
②口②口 |----|
口③口③ |--①-|
口口口口 |②-③-|
85
②口④口 |----|
口④口③ |①---|
④口口口 |②---|
①口①口 |③-④-|
86
口④口② |----|
③口④口 |①---|
口口口④ |②---|
口①口① |③-④-|
87
②口④口 |----|
口④口③ |①---|
④口口口 |②---|
①口①口 |③-④-|
88
口④口② |----|
③口④口 |①---|
口口口④ |②---|
口①口① |③-④-|
89
口口②口 |----|
口口口口 |①---|
口口③口 |②---|
①④①④ |③-④-|
90
口口③口 |----|
①④①④ |①---|
口②口口 |②---|
口口口口 |③-④-|
91
口②口口 |----|
口口口口 |①---|
口③口口 |②---|
④口④① |③-④-|
92
口口口口 |----|
口口口口 |①---|
①口①口 |----|
口①口口 |----|
93
口②口① |①---|
②口①口 |----|
口①口② |②---|
①口②口 |----|
94
①口口② |①---|
口口口口 |----|
口口口口 |----|
②口口① |--②-|
95
口①口口 |----|
口口口口 |①---|
口口②口 |②---|
口③口口 |--③-|
96
口口口口 |①---|
口口口口 |②---|
①口口① |----|
③口②③ |--③-|
97
口口③口 |----|
口②口口 |----|
口口①口 |①---②-|
口口口口 |--③---|
98
口②口口 |①---|
③口口③ |--②-|
口①口口 |③---|
口口口口 |----|
99
①口口① |①---|
口②口口 |--②-|
口口⑤③ |③-④-|
口④口口 |⑤---|
100
口口口口 |①---|
口②口口 |----|
口口口口 |②---|
①③口① |--③-|
101
③口口口 |----|
口口口口 |①---|
口口口② |②---|
①口口口 |--③-|
102
口口口口 |----|
口口口口 |----|
口口口口 |----|
口口口口 |----|
103
口口口口 |①---|
口口口口 |----|
口口口口 |----|
①口口① |----|


不确定度: 0

最終更新:2012年11月07日 23:40