恋閃繚乱
2B-Waves

ADVANCED

Level: 7
BPM: 142
Notes: 482

1
口口口口 |----|
口口口口 |----|
口口口口 |----|
口口口口 |----|
2
口口口口 |----|
口口口口 |----|
口口口口 |----|
口口口口 |----|
3
⑧⑧③① |①-②-|
⑥⑥⑤口 |③-④-|
④④⑦口 |⑤-⑥-|
②②口口 |⑦-⑧-|
4
⑧⑧口口 |①-②-|
⑥⑥口⑦ |③-④-|
④④口⑤ |⑤-⑥-|
②②①③ |⑦-⑧-|
5
⑧⑧③① |①-②-|
⑥⑥⑤口 |③-④-|
④④⑦口 |⑤-⑥-|
②②口口 |⑦-⑧-|
6
⑥⑧口口 |①-②-|
口口⑦⑤ |③-④-|
④④口口 |⑤-⑥-|
②②①③ |⑦-⑧-|
7
⑧⑧③① |①-②-|
⑥⑥⑤口 |③-④-|
④④⑦口 |⑤-⑥-|
②②口口 |⑦-⑧-|
8
⑧⑧口口 |①-②-|
⑥⑥口⑦ |③-④-|
④④口⑤ |⑤-⑥-|
②②①③ |⑦-⑧-|
9
⑧⑧③① |①-②-|
⑥⑥⑤口 |③-④-|
④④⑦口 |⑤-⑥-|
②②口口 |⑦-⑧-|
10
⑥⑧口口 |①-②-|
口口⑦⑤ |③-④-|
④④口口 |⑤-⑥-|
②②①③ |⑦-⑧-|
11
口口口① |--①-|
口⑥口⑤ |②-③④|
口②③口 |--⑤-|
口④口⑦ |⑥-⑦-|
12
口⑥口⑥ |①-②-|
②⑤④⑤ |③-④⑤|
口口③口 |--⑥-|
①口口口 |----|
13
⑧口④口 |--①②|
口⑦口③ |③-④-|
⑥口口② |⑤-⑥-|
口⑤口① |⑦-⑧-|
14
口②口④ |①-②-|
①口③口 |③-④-|
口口口口
口口口口

口⑥⑥口
⑥口口⑥
口口口口 |⑤---|
口⑤⑤口 |⑥---|
15
口口口① |--①-|
口⑥口⑤ |②-③④|
口②③口 |--⑤-|
口④口⑦ |⑥-⑦-|
16
口⑥口⑥ |①-②-|
②⑤④⑤ |③-④⑤|
口口③口 |--⑥-|
①口口口 |----|
17
⑧口④口 |--①②|
口⑦口③ |③-④-|
⑥口口② |⑤-⑥-|
口⑤口① |⑦-⑧-|
18
口②口④ |①-②-|
①口③口 |③-④-|
口口口口 |⑤---|
口⑤⑤口 |----|
19
⑧口口① |①-②-|
⑥口口③ |③-④-|
④口口⑤ |⑤-⑥-|
②口口⑦ |⑦-⑧-|
20
口口口口 |①---|
口口口② |②---|
口①①口
口口口口

口口口口
③口⑥口
口⑤口口 |③-④-|
④口口口 |⑤-⑥-|
21
②口口① |①-②-|
④口口⑦ |③-④-|
⑥口口⑤ |⑤-⑥-|
⑧口口③ |⑦-⑧-|
22
口口口③ |①---|
口口②口 |--②-|
口口①③ |③---|
口口口口 |----|
23
①④口口 |①-②-|
⑦②⑤口 |③-④-|
口⑧③⑥ |⑤-⑥-|
口口口口 |⑦-⑧-|
24
口口口口 |①---|
④④口口 |②---|
口口③③ |③---|
②口①口 |④---|
25
口口①① |①---|
口⑤③口 |--②-|
口口口口 |③---|
②口口④ |④-⑤-|
26
②②口② |--①-|
口口③口 |②---|
①①口④ |③---|
口口口口 |④---|
27
口④⑤口 |①---|
口口口口 |②---|
口②③口 |③--④|
口口①口 |--⑤-|
28
④口③③ |①---|
口②①口 |②---|
③口④④ |③---|
口①②口 |④---|
29
⑥⑥⑤口 |①-②-|
①③②④ |③-④-|
口口⑦⑦ |⑤---|
口口口口 |⑥-⑦-|
30
②④口口 |----|
口口口口 |----|
①③口口 |①-②-|
口口口口 |③-④-|
31
口口口口 |①---|
口口①① |----|
口口口口
口口口口

④口口④
③口口③
②口口② |②--③|
口口口口 |--④-|
32
③③口④ |①---|
口①②口 |②---|
④④④③ |③---|
口②①口 |④---|
33
口③④④ |①---|
口②口① |②---|
⑤⑤口口 |③---|
口口口口 |④-⑤-|
34
口口口口 |----|
③③③③ |----|
口②②口 |①--②|
①①①① |--③-|
35
①①①① |①---|
口②口③ |----|
口④口⑤ |②-③-|
口口口口 |④-⑤-|
36
②口口口 |--①-|
③⑦⑥⑥ |②③④-|
④⑧⑤⑤ |⑤-⑥-|
口⑨①① |⑦⑧⑨-|
37
口口①① |①---|
口口口口 |--②-|
口口②②
口口口口

口口⑥⑥
③口口口
④口口口 |③④⑤-|
⑤口口口 |⑥---|
38
口口⑥口 |--①-|
口⑦口⑤ |②-③④|
口③②口 |-⑤--|
④口口① |⑥-⑦-|
39
口口口口 |①---|
口口③③ |②---|
②②口口 |③---|
口口①① |----|
40
⑦⑤⑥④ |--①-|
口口口② |②-③-|
口口口③ |④-⑤-|
口口口① |⑥-⑦-|
41
口口口口 |①-②-|
④③④口 |③-④-|
口口口口
口②口①

口口口口
口口口口
口口口口 |----|
⑤口口⑤ |--⑤-|
42
口口口口 |①-②-|
④口口④ |③-④-|
②③③②
口①①口

⑥⑧⑧⑥
口⑤⑤口
⑦口口⑦ |⑤-⑥-|
口口口口 |⑦-⑧-|
43
口口口口 |--①-|
①口②① |--②③|
口③口口 |④---|
口口④口 |----|
44
口口④① |①-②-|
口口⑤② |③-④-|
⑥⑦口③ |⑤-⑥-|
口⑧口口 |⑦-⑧-|
45
口口口口 |①---|
口口口口 |----|
口口口口
口口①口

口口口口
口口口口
口口④口 |--②-|
口口②③ |③-④-|
46
口口④⑤ |①-②-|
口口②③ |③-④-|
口口⑥① |⑤-⑥-|
⑧口⑦口 |⑦-⑧-|
47
口口口口 |①---|
①口口口 |--②-|
口②口③ |③---|
口口口口 |----|
48
①口①口 |①-②-|
口④⑦口 |③-④-|
口②⑤⑧ |⑤-⑥-|
口③⑥口 |⑦-⑧-|
49
口口口口 |①---|
口口口② |②---|
口口口口
口①口①

口口③口
口口口口
口口口④ |③---|
口口口④ |④---|
50
①口③③ |①---|
①口口口 |--②-|
口⑤口口 |③---|
②②口④ |④-⑤-|
51
②②口口 |--①-|
口口①① |②-③-|
口口口口
口口口③

口口口口
口口口⑦
⑥口口⑤ |④-⑤-|
④口口口 |⑥-⑦-|
52
③口④② |①-②-|
①⑦⑦口 |③-④-|
口⑥⑥口 |⑤--⑥|
⑤口口⑤ |--⑦-|
53
口口口口 |----|
口口口口 |----|
口口口口
口口口口
54
④口③③ |①---|
口②①口 |②---|
③口④④ |③---|
口①②口 |④---|
55
⑥⑥⑤口 |①-②-|
①③②④ |③-④-|
口口⑦⑦ |⑤---|
口口口口 |⑥-⑦-|
56
②④口口 |----|
口口口口 |----|
①③口口 |①-②-|
口口口口 |③-④-|
57
口口口口 |①---|
口口①① |----|
口口口口
口口口口

④口口④
③口口③
②口口② |②--③|
口口口口 |--④-|
58
③③口④ |①---|
口①②口 |②---|
④④口③ |③---|
口②①口 |④---|
59
口⑤⑥⑥ |①-②-|
④②③① |③-④-|
⑦⑦口口 |⑤---|
口口口口 |⑥-⑦-|
60
口口口口 |----|
③③③③ |----|
口②②口 |①--②|
①①①① |--③-|
61
①①①① |①---|
口口口口 |----|
口口口口
口口口口

口口⑤口
④口口口
口口③口 |②-③-|
②口口口 |④-⑤-|


不確定度: 0

最終更新:2013年02月26日 21:33