Cosmic Hurricane
TAG

BASIC

Level: 5
BPM: 188
Notes: 364

1
口口口口 |----|
口口口口 |----|
口口口口 |----|
口口口口 |----|
2
口口口口 |①---|
口口口口 |----|
口口口口 |----|
口①①口 |----|
3
①口口① |①---|
口口口口 |----|
口口口口 |----|
口口口口 |----|
4
口口口口 |①---|
口口口口 |----|
口①①口 |----|
口口口口 |----|
5
①口口① |①---|
口口口口 |----|
口口口口 |----|
口口口口 |----|
6
口口口口 |①---|
口①①口 |----|
口口口口 |----|
口口口口 |----|
7
①口口① |①---|
口口口口 |----|
口口口口 |----|
口口口口 |----|
8
口①①口 |①---|
口口口口 |----|
口口口口 |----|
口口口口 |----|
9
①口口① |①---|
口口口口 |----|
口口口口 |----|
口口口口 |----|
10
口口口口 |①---|
口口口口 |②---|
口口口口 |③---|
①②③④ |④---|
11
口口口口 |①---|
口口口口 |②---|
①②③④ |③---|
口口口口 |④---|
12
口口口口 |①---|
①②③④ |②---|
口口口口 |③---|
口口口口 |④---|
13
①②③④ |①---|
口口口口 |②---|
口口口口 |③---|
口口口口 |④---|
14
口口口口 |①---|
口口口口 |②---|
口口口口 |③---|
①②③④ |④---|
15
口口口口 |①---|
口口口口 |②---|
①②③④ |③---|
口口口口 |④---|
16
口口口口 |①---|
①②③④ |②---|
口口口口 |③---|
口口口口 |④---|
17
①②③④ |①---|
口口口口 |②---|
口口口口 |③---|
口口口口 |④---|
18
口口口口 |----|
口口口口 |----|
口口口口 |----|
口口口口 |----|
19
①②④③ |①---|
口口口口 |②---|
口口口口 |③---|
口口口口 |④---|
20
口口口口 |①---|
口①④口 |②---|
口③②口 |③---|
口口口口 |④---|
21
①②④③ |①---|
口口口口 |②---|
口口口口 |③---|
口口口口 |④---|
22
口口口口 |①---|
④口口④ |②---|
③口口③ |③---|
②①①② |④---|
23
③④②① |①---|
口口口口 |②---|
口口口口 |③---|
口口口口 |④---|
24
口口口口 |①---|
口④①口 |②---|
口②③口 |③---|
口口口口 |④---|
25
③④②① |①---|
口口口口 |②---|
口口口口 |③---|
口口口口 |④---|
26
口口口口 |①---|
①口口① |②---|
②口口② |③---|
③④④③ |④---|
27
①②④③ |①---|
口口口口 |②---|
口口口口 |③---|
口口口口 |④---|
28
口口口口 |①---|
口①④口 |②---|
口③②口 |③---|
口口口口 |④---|
29
①②④③ |①---|
口口口口 |②---|
口口口口 |③---|
口口口口 |④---|
30
口口口口 |①---|
④口口④ |②---|
③口口③ |③---|
②①①② |④---|
31
③④②① |①---|
口口口口 |②---|
口口口口 |③---|
口口口口 |④---|
32
口口口口 |①---|
口④①口 |②---|
口②③口 |③---|
口口口口 |④---|
33
②②①① |①---|
口口口口 |----|
口口口口 |②---|
口口口口 |----|
34
口口口口 |①---|
②②①① |②---|
④④③③ |③---|
口口口口 |④---|
35
口口口① |①---|
口口口口 |----|
口口口口 |----|
口口口口 |----|
36
③口口③ |①---|
②口口② |--②-|
①口口① |----|
口口口口 |--③-|
37
口口口口 |----|
口口口口 |----|
口口口口 |----|
口口口口 |----|
38
口①①口 |①---|
口②②口 |--②-|
口③③口 |----|
口口口口 |③---|
39
口口口口 |①---|
口口口口 |----|
口口口口 |----|
口①①口 |----|
40
③口口③ |①---|
②口口② |--②-|
①口口① |----|
口口口口 |--③-|
41
口口口口 |----|
口口口口 |----|
口口口口 |----|
①口口口 |①---|
42
口口口口 |①---|
口口口口 |----|
口②②口 |②---|
口口口① |----|
43
①①①① |①---|
口口口口 |----|
口口口口 |----|
口口口口 |----|
44
口口口口 |----|
口②①口 |----|
口口口口 |----|
口口口口 |①-②-|
45
口口口口 |----|
口口口口 |----|
口口口口 |----|
口口口口 |----|
46
口口口口 |----|
口口口口 |----|
口①口口 |----|
口口口口 |①---|
47
口口口口 |①---|
口口口口 |----|
口口①口 |----|
口口口口 |----|
48
口③②口 |①---|
口口①口 |----|
口口口口 |----|
口口口口 |②-③-|
49
口口口口 |----|
口口口口 |----|
口口口口 |----|
口口口口 |----|
50
口口口口 |①---|
①口③口 |----|
口②口口 |②---|
口口口口 |③---|
51
口①口口 |①---|
口口口口 |----|
口口口口 |----|
口口口口 |----|
52
口口口口 |----|
口②①口 |----|
口口口口 |----|
口口口口 |①-②-|
53
口口口口 |----|
口口口口 |----|
口口口口 |----|
口口口口 |----|
54
口口口口 |----|
口口口口 |----|
口①口口 |----|
口口口口 |①---|
55
口口口口 |①---|
口口口口 |----|
口口①口 |----|
口口口口 |----|
56
口②口口 |①---|
口口①口 |----|
口口口口 |----|
口口口口 |②---|
57
口口①口 |①---|
口口口口 |----|
口口口口 |----|
口口口口 |----|
58
口口口① |①---|
口口口口 |----|
口口口口 |----|
口口口口 |----|
59
口口口口 |----|
口口口口 |----|
口口口口 |----|
口口口口 |----|
60
①口口③ |①---|
口②④口 |②---|
口口口口 |③---|
口口口口 |④---|
61
口口口口 |①---|
口口口口 |②---|
③口口④ |③---|
①口口② |④---|
62
①口口③ |①---|
口②④口 |②---|
口口口口 |③---|
口口口口 |④---|
63
口口口口 |①---|
口口口口 |②---|
口③④口 |③---|
口①②口 |④---|
64
①口口③ |①---|
口②④口 |②---|
口口口口 |③---|
口口口口 |④---|
65
口口口口 |①---|
口口口口 |②---|
③口口④ |③---|
①口口② |④---|
66
①口口③ |①---|
口②④口 |②---|
口口口口 |③---|
口口口口 |④---|
67
口口口口 |①---|
口口口口 |----|
口②②口 |②---|
口①①口 |----|
68
③口口① |①---|
口④②口 |②---|
口口口口 |③---|
口口口口 |④---|
69
口口口口 |①---|
口口口口 |②---|
④口口③ |③---|
②口口① |④---|
70
③口口① |①---|
口④②口 |②---|
口口口口 |③---|
口口口口 |④---|
71
口口口口 |①---|
口口口口 |②---|
口④③口 |③---|
口②①口 |④---|
72
③口口① |①---|
口④②口 |②---|
口口口口 |③---|
口口口口 |④---|
73
口口口口 |①---|
口口口口 |②---|
④口口③ |③---|
②口口① |④---|
74
③口口① |①---|
口④②口 |②---|
口口口口 |③---|
口口口口 |④---|
75
口口口口 |①---|
口口口口 |----|
口口口口 |②---|
②①①② |----|
76
②②④④ |①---|
口口口口 |②---|
①①③③ |③---|
口口口口 |④---|
77
口口口口 |①---|
口②③口 |②---|
口口口口 |③---|
口①④口 |④---|
78
②②④④ |①---|
口口口口 |②---|
①①③③ |③---|
口口口口 |④---|
79
口口口口 |①---|
口③④口 |②---|
口口口口 |③---|
口①②口 |④---|
80
②②④④ |①---|
口口口口 |②---|
①①③③ |③---|
口口口口 |④---|
81
口口口口 |①---|
口②③口 |②---|
口口口口 |③---|
口①④口 |④---|
82
②②④④ |①---|
口口口口 |②---|
①①③③ |③---|
口口口口 |④---|
83
口口口口 |①---|
④③③④ |②---|
口口口口 |③---|
②①①② |④---|
84
④④②② |①---|
口口口口 |②---|
③③①① |③---|
口口口口 |④---|
85
口口口口 |①---|
口③②口 |②---|
口口口口 |③---|
口④①口 |④---|
86
④④②② |①---|
口口口口 |②---|
③③①① |③---|
口口口口 |④---|
87
口口口口 |①---|
口④③口 |②---|
口口口口 |③---|
口②①口 |④---|
88
④④②② |①---|
口口口口 |②---|
③③①① |③---|
口口口口 |④---|
89
口口口口 |①---|
口③②口 |②---|
口口口口 |③---|
口④①口 |④---|
90
④④②② |①---|
口口口口 |②---|
③③①① |③---|
口口口口 |④---|
91
口口口口 |①---|
④③③④ |②---|
口口口口 |③---|
②①①② |④---|
92
口口口口 |①---|
口口口口 |②---|
②①①② |③---|
④③③④ |④---|
93
④③③④ |①---|
②①①② |②---|
口口口口 |③---|
口口口口 |④---|
94
口口口口 |①---|
口①①口 |----|
口①①口 |----|
口口口口 |----|


不確定度: 0

最終更新:2013年02月26日 21:31