Cosmic Hurricane
TAG

ADVANCED

Level: 8
BPM: 188
Notes: 575

1
口口口口 |----|
口口口口 |----|
口口口口 |----|
口口口口 |----|
2
口口口口 |①---|
口口口口 |----|
口口口口 |----|
①①口口 |----|
3
口口①① |①---|
口口口口 |----|
口口口口 |----|
口口口口 |----|
4
口口口口 |①---|
口口口口 |----|
口口口口 |----|
口口①① |----|
5
①①口口 |①---|
口口口口 |----|
口口口口 |----|
口口口口 |----|
6
口口口口 |①---|
口口口口 |----|
口口口口 |----|
①口口① |----|
7
口①①口 |①---|
口口口口 |----|
口口口口 |----|
口口口口 |----|
8
口口口口 |①---|
口口口口 |----|
口口口口 |----|
口①①口 |----|
9
①口口① |①---|
口口口口 |----|
口口口口 |----|
口口口口 |----|
10
口口口口 |①--②|
口口口口 |--③-|
口⑥⑤④ |④--⑤|
①②③口 |--⑥-|
11
口⑥⑤④ |①--②|
①②③口 |--③-|
口口口口 |④--⑤|
口口口口 |--⑥-|
12
①口口④ |①--②|
②口口⑤ |--③-|
③口口⑥ |④--⑤|
口口口口 |--⑥-|
13
口①④口 |①--②|
口②⑤口 |--③-|
口③⑥口 |④--⑤|
口口口口 |--⑥-|
14
口口口口 |①--②|
③口口⑥ |--③-|
②口口⑤ |④--⑤|
①口口④ |--⑥-|
15
口口口口 |①--②|
口③⑥口 |--③-|
口②⑤口 |④--⑤|
口①④口 |--⑥-|
16
③①②④ |①-②-|
口口口口 |③-④-|
⑦⑤⑥⑧ |⑤-⑥-|
口口口口 |⑦-⑧-|
17
口口口口 |①-②-|
③①②④ |③-④-|
口口口口 |⑤-⑥-|
⑦⑤⑥⑧ |⑦-⑧-|
18
口口口口 |----|
口口口口 |----|
口口口口 |----|
口口口口 |----|
19
①口口① |①---|
②口口② |②---|
口口口口
口口口口

⑤口口⑤
口口口口
口③④口 |③-④-|
口口口口 |--⑤-|
20
口口④口 |--①-|
③⑤口口 |②-③-|
口口⑥② |④-⑤-|
①⑦口口 |⑥-⑦-|
21
①口口① |①---|
②口口② |②---|
口③④口 |③-④-|
口⑤⑤口 |--⑤-|
22
③口口口 |--①-|
口口口② |②-③-|
①④⑤口 |--④-|
口口口口 |⑤---|
23
口①①口 |①---|
口②②口 |②---|
口口口口
口口口口

口⑤⑤口
口口口口
口③④口 |③-④-|
口口口口 |--⑤-|
24
口口口④ |--①-|
⑤③口口 |②-③-|
口口⑥② |④-⑤-|
①⑦口口 |⑥-⑦-|
25
⑤①①⑤ |①---|
口②②口 |②---|
口③④口 |③-④-|
口口口口 |--⑤-|
26
口④⑦口 |--①-|
口⑥口口 |②-③-|
口口⑤① |④-⑤-|
②口③口 |⑥-⑦-|
27
①口口① |①---|
②口口② |②---|
口口口口
口口口口

⑤口口⑤
口口口口
口③④口 |③-④-|
口口口口 |--⑤-|
28
口口④口 |--①-|
③⑤口口 |②-③-|
口口⑥② |④-⑤-|
①⑦口口 |⑥-⑦-|
29
①口口① |①---|
②口口② |②---|
口③④口 |③-④-|
口⑤⑤口 |--⑤-|
30
③口口口 |--①-|
口口口② |②-③-|
①④⑤口 |--④-|
口口口口 |⑤---|
31
口①口④ |①--②|
口①口④ |--③-|
③⑤⑥② |-④--|
③⑤⑥② |⑤-⑥-|
32
①口②口 |①--②|
①口②口 |--③-|
③⑤⑥④ |-④--|
③⑤⑥④ |⑤-⑥-|
33
①⑧⑦② |①-②-|
⑥⑤④③ |③④⑤⑥|
口口口口 |⑦-⑧-|
⑫⑪⑩⑨ |⑨⑩⑪⑫|
34
②⑥⑤① |①-②-|
④⑧⑦③ |③-④-|
口口口口 |⑤-⑥-|
口口口口 |⑦-⑧-|
35
口口口口 |①---|
②口口口 |②---|
③①①口 |③---|
④口口口 |④---|
36
①口口口 |①---|
②口③① |②-③-|
④口⑥口 |④---|
⑤口口口 |⑤-⑥-|
37
①口口口 |①---|
②口口口 |②---|
③口口口 |③---|
④口口口 |④---|
38
①口口① |①---|
②口③口 |②-③-|
④口⑤口 |④---|
⑤口口口 |⑤---|
39
①口口口 |①---|
②口口① |②---|
③口口口 |③---|
④口口口 |④---|
40
①口口③ |①---|
②口①⑥ |②-③-|
④口口口 |④---|
⑤口口口 |⑤-⑥-|
41
口①②口 |①-②-|
口③④口 |③-④-|
口⑤⑥口 |⑤-⑥-|
口⑦⑧口 |⑦-⑧-|
42
①②④③ |①-②-|
⑤⑥⑧⑦ |③-④-|
口口口口 |⑤-⑥-|
口口口口 |⑦-⑧-|
43
口口口口 |①---|
口口口口 |----|
口①①口 |----|
口口口口 |----|
44
①口口口 |①---|
口③②口 |----|
口口口口 |----|
口口口口 |②-③-|
45
口口口口 |----|
口口口口 |----|
口口口口 |----|
口口口口 |----|
46
口口口① |①---|
口口口口 |----|
②口口口 |----|
口口口口 |②---|
47
口口口口 |①---|
口口口口 |----|
口口口① |----|
口口口口 |----|
48
①③②口 |①---|
口①口口 |----|
口口口口 |----|
口口口口 |②-③-|
49
口口口口 |----|
口口口口 |----|
口口口口 |----|
口口口口 |----|
50
口口口① |①---|
①口口口 |----|
口口③口 |②---|
口②口口 |③---|
51
口口口口 |①---|
口①口口 |----|
口口口口 |----|
口口口口 |----|
52
①口口口 |①---|
口③②口 |----|
口口口口 |----|
口口口口 |②-③-|
53
口口口口 |----|
口口口口 |----|
口口口口 |----|
口口口口 |----|
54
口口口① |①---|
口口口口 |----|
②口口口 |----|
口口口口 |②---|
55
口口口口 |①---|
口口口口 |----|
口口口① |----|
口口口口 |----|
56
①口口口 |①---|
口①口口 |----|
口口②口 |----|
口口口口 |②---|
57
口①②口 |①-②-|
③口口④ |③-④-|
⑤口口⑥ |⑤-⑥-|
口⑦⑧口 |⑦-⑧-|
58
⑦口口⑧ |①-②-|
口⑤⑥口 |③-④-|
口③④口 |⑤-⑥-|
①口口② |⑦-⑧-|
59
口口口口 |①---|
口口口口 |②---|
口口口口 |③---|
①②③④ |④---|
60
④①①④ |①-②-|
口口口⑤ |③-④-|
口②③口 |--⑤-|
⑥口口⑦ |⑥-⑦-|
61
口②③口 |①-②-|
口⑦⑦口 |③-④-|
口①④口 |--⑤-|
⑤口口⑥ |⑥-⑦-|
62
①④④① |①-②-|
口口口⑤ |③-④-|
⑥②③口 |--⑤-|
口口口⑦ |⑥-⑦-|
63
口口口④ |①-②-|
②⑦⑥⑤ |③-④-|
口口口③ |--⑤-|
①口口口 |⑥-⑦-|
64
④①①④ |①-②-|
口口口⑤ |③-④-|
口②③口 |--⑤-|
⑥口口⑦ |⑥-⑦-|
65
口②③口 |①-②-|
口⑦⑦口 |③-④-|
口①④口 |--⑤-|
⑤口口⑥ |⑥-⑦-|
66
①④④① |①-②-|
口口口⑤ |③-④-|
⑥②③口 |--⑤-|
口口口⑦ |⑥-⑦-|
67
口口口④ |①-②-|
②⑦⑥⑤ |③-④-|
口口口③ |--⑤-|
①口口口 |⑥-⑦-|
68
④①①④ |①-②-|
口口口⑤ |③-④-|
口②③口 |--⑤-|
⑥口口⑦ |⑥-⑦-|
69
口②③口 |①-②-|
口⑦⑦口 |③-④-|
口①④口 |--⑤-|
⑤口口⑥ |⑥-⑦-|
70
①④④① |①-②-|
口口口⑤ |③-④-|
⑥②③口 |--⑤-|
口口口⑦ |⑥-⑦-|
71
口口口④ |①-②-|
②⑦⑥⑤ |③-④-|
口口口③ |--⑤-|
①口口口 |⑥-⑦-|
72
④①①④ |①-②-|
口口口⑤ |③-④-|
口②③口 |--⑤-|
⑥口口⑦ |⑥-⑦-|
73
口②③口 |①-②-|
口⑦⑦口 |③-④-|
口①④口 |--⑤-|
⑤口口⑥ |⑥-⑦-|
74
①④④① |①-②-|
口口口⑤ |③-④-|
⑥②③口 |--⑤-|
口口口⑦ |⑥-⑦-|
75
口⑦口④ |①-②-|
②口口口 |③-④-|
口口⑥③ |--⑤-|
①⑤口口 |⑥-⑦-|
76
口口口口 |①-②③|
②③⑧⑦ |--④-|
⑤⑥口④ |⑤⑥-⑦|
⑨口口① |⑧-⑨-|
77
②③⑤④ |①-②③|
口⑧口口 |-④⑤-|
口口⑦口 |--⑥-|
口⑥口① |⑦-⑧-|
78
②③⑧⑦ |①-②③|
口口口④ |--④-|
⑤⑥口口 |⑤⑥-⑦|
口⑨口① |⑧-⑨-|
79
口⑥口口 |①--②|
②口⑤口 |--③-|
口口口① |--④-|
④口口③ |⑤-⑥-|
80
口口口口 |①--②|
⑤⑥口① |③-④-|
②③⑧⑦ |⑤⑥-⑦|
⑨口④口 |⑧-⑨-|
81
②③口口 |①-②③|
口⑧⑤④ |-④⑤-|
口口⑦口 |--⑥-|
口⑥口① |⑦-⑧-|
82
⑤⑥口口 |①--②|
口口⑧⑦ |③-④-|
②③口口 |⑤⑥-⑦|
⑨口④① |⑧-⑨-|
83
口⑥③口 |①--②|
②口⑤口 |--③-|
口口口① |--④-|
口④口口 |⑤-⑥-|
84
口口口口 |①-②③|
②③⑧⑦ |--④-|
⑤⑥口④ |⑤⑥-⑦|
⑨口口① |⑧-⑨-|
85
②③⑤④ |①-②③|
口⑧口口 |-④⑤-|
口口⑦口 |--⑥-|
口⑥口① |⑦-⑧-|
86
②③⑧⑦ |①-②③|
口口口④ |--④-|
⑤⑥口口 |⑤⑥-⑦|
口⑨口① |⑧-⑨-|
87
口⑥口口 |①--②|
②口⑤口 |--③-|
口口口① |--④-|
④口口③ |⑤-⑥-|
88
口口口口 |①--②|
⑤⑥口① |③-④-|
②③⑧⑦ |⑤⑥-⑦|
⑨口④口 |⑧-⑨-|
89
②③口口 |①-②③|
口⑥⑤④ |-④⑤-|
口口⑦口 |--⑥-|
口⑧口① |⑦-⑧-|
90
⑤⑥口口 |①--②|
口口⑧⑦ |③-④-|
②③口口 |⑤⑥-⑦|
⑨口④① |⑧-⑨-|
91
口⑥③口 |①--②|
②口⑤口 |--③-|
口口口① |--④-|
口④口口 |⑤-⑥-|
92
①口口② |①-②-|
③口口④ |③-④-|
口⑤⑥口 |⑤-⑥-|
口⑦⑧口 |⑦-⑧-|
93
口①④口 |①-②-|
⑤③②⑧ |③-④-|
⑦口口⑥ |⑤-⑥-|
口口口口 |⑦-⑧-|
94
口口口口 |①---|
口口口口 |----|
口①①口 |----|
口①①口 |----|


不確定度: 0

最終更新:2013年02月26日 21:31