snow prism
Qrispy Joybox

BASIC

Level: 4
BPM: 196
Notes: 264

1
口口口口 |----|
口口口口 |----|
口口口口 |----|
口口口口 |----|
2
口口口口 |----|
口口口口 |----|
口口口口 |----|
口口口口 |----|
3
①口口① |①---|
②口口② |--②-|
③口口③ |----|
口口口口 |--③-|
4
口口口口 |----|
口口口口 |--①-|
口口口口 |----|
①口口① |----|
5
口①①口 |①---|
口②②口 |--②-|
口③③口 |----|
口口口口 |--③-|
6
口口口口 |----|
口口口口 |----|
口口口口 |----|
口口口口 |----|
7
①口口① |①---|
②口口② |--②-|
③口口③ |----|
口口口口 |--③-|
8
口口口口 |----|
口口口口 |--①-|
口口口口 |----|
①口口① |----|
9
口①①口 |①---|
口②②口 |--②-|
口③③口 |----|
口口口口 |--③-|
10
口口口口 |----|
口口口口 |----|
口口口口 |----|
口口口口 |----|
11
口口口① |①---|
口口口口 |----|
口口口口 |----|
口口口口 |----|
12
口口口口 |----|
口口口口 |----|
口口口口 |----|
口口口口 |----|
13
口口口口 |①---|
②②口口 |----|
①①口口 |②---|
口口口口 |----|
14
口③②① |①---|
口口口口 |②---|
口口口口 |③---|
口口口口 |----|
15
口口口口 |①---|
口口②② |----|
口口①① |②---|
口口口口 |----|
16
①②③口 |①---|
口口口口 |②---|
口口口口 |③---|
口口口口 |----|
17
口口口口 |①---|
①①口口 |----|
②②口口 |②---|
口口口口 |----|
18
口口口口 |①---|
口口口口 |②---|
口口口口 |③---|
口③②① |----|
19
口口口口 |①---|
口口①① |----|
口口②② |②---|
口口口口 |----|
20
口口口口 |①---|
口口口口 |----|
口口口口 |----|
口①①口 |----|
21
口口口口 |①---|
②②口口 |----|
①①口口 |②---|
口口口口 |----|
22
口③②① |①---|
口口口口 |②---|
口口口口 |③---|
口口口口 |----|
23
口口口口 |①---|
口口②② |----|
口口①① |②---|
口口口口 |----|
24
①②③口 |①---|
口口口口 |②---|
口口口口 |③---|
口口口口 |----|
25
口口口口 |①---|
①①口口 |----|
②②口口 |②---|
口口口口 |----|
26
口口口口 |①---|
口口口口 |②---|
口口口口 |③---|
口③②① |----|
27
口口①口 |①---|
口②口口 |----|
口口口口 |②---|
口口口口 |----|
28
口口口口 |①---|
口口口口 |----|
口①①口 |----|
口口口口 |----|
29
口口口口 |①---|
口口口口 |----|
口口口口 |----|
①①口口 |----|
30
口口②① |----|
口口口口 |----|
口口口口 |①---|
口口口口 |②---|
31
口口口口 |①---|
口口口口 |----|
①①口口 |----|
口口口口 |----|
32
口口②① |----|
口口口口 |----|
口口口口 |①---|
口口口口 |②---|
33
口口口口 |①---|
①①口口 |----|
口口口口 |----|
口口口口 |----|
34
口口②① |----|
口口口口 |----|
口口口口 |①---|
口口口口 |②---|
35
口口口口 |①---|
①口口② |----|
口口口口 |②---|
口口口口 |----|
36
口口口口 |①---|
口①口口 |②---|
口口②口 |③---|
口③④口 |④---|
37
口③④口 |①---|
口口②口 |②---|
口①口口 |③---|
口口口口 |④---|
38
口口口口 |①---|
口①口口 |②---|
口口②口 |③---|
口③④口 |④---|
39
口口口口 |①---|
口口口口 |----|
口①口口 |----|
口口口口 |----|
40
口口口口 |----|
口口口口 |----|
口口口口 |----|
口口口口 |----|
41
口口口口 |①---|
②②口口 |----|
①①口口 |②---|
口口口口 |----|
42
口③②① |①---|
口口口口 |②---|
口口口口 |③---|
口口口口 |----|
43
口口口口 |①---|
口口②② |----|
口口①① |②---|
口口口口 |----|
44
①②③口 |①---|
口口口口 |②---|
口口口口 |③---|
口口口口 |----|
45
口口口口 |①---|
①①口口 |----|
②②口口 |②---|
口口口口 |----|
46
口口口口 |①---|
口口口口 |②---|
口口口口 |③---|
口③②① |----|
47
口口口口 |①---|
口口①① |----|
口口②② |②---|
口口口口 |----|
48
口口口口 |①---|
口口口口 |----|
口口口口 |----|
口①①口 |----|
49
口口口口 |①---|
②②口口 |----|
①①口口 |②---|
口口口口 |----|
50
口③②① |①---|
口口口口 |②---|
口口口口 |③---|
口口口口 |----|
51
口口口口 |①---|
口口②② |----|
口口①① |②---|
口口口口 |----|
52
①②③口 |①---|
口口口口 |②---|
口口口口 |③---|
口口口口 |----|
53
口口口口 |①---|
①①口口 |----|
②②口口 |②---|
口口口口 |----|
54
口口口口 |①---|
口口口口 |②---|
口口口口 |③---|
口③②① |----|
55
口口①口 |①---|
口②口口 |----|
口口口口 |②---|
口口口口 |----|
56
口口口口 |①---|
口口口口 |----|
口①①口 |----|
口口口口 |----|
57
①②③④ |①---|
口口口口 |②---|
口口口口 |③---|
口口口口 |④---|
58
口口口口 |①---|
①①②② |----|
口口口口 |②---|
口口口口 |----|
59
口口口口 |①---|
口口口口 |②---|
口口口口 |③---|
④③②① |④---|
60
口口口口 |①---|
口口口口 |----|
②②①① |②---|
口口口口 |----|
61
①②③④ |①---|
口口口口 |②---|
口口口口 |③---|
口口口口 |④---|
62
口口口口 |①---|
①①②② |----|
口口口口 |②---|
口口口口 |----|
63
口口口口 |①---|
口口口口 |②---|
口口口口 |③---|
④③②① |④---|
64
口口口口 |①---|
口口口口 |----|
口①①口 |----|
口口口口 |----|
65
①②③④ |①---|
口口口口 |②---|
口口口口 |③---|
口口口口 |④---|
66
口口口口 |①---|
①①②② |----|
口口口口 |②---|
口口口口 |----|
67
口口口口 |①---|
口口口口 |②---|
口口口口 |③---|
④③②① |④---|
68
口口口口 |①---|
口口口口 |----|
②②①① |②---|
口口口口 |----|
69
①②③④ |①---|
口口口口 |②---|
口口口口 |③---|
口口口口 |④---|
70
口口口口 |①---|
①①②② |----|
口口口口 |②---|
口口口口 |----|
71
口口口口 |①---|
口口口口 |----|
口②②口 |②---|
口①①口 |----|
72
②口口② |①---|
口①①口 |----|
口口口口 |②---|
口口口口 |----|
73
口①①口 |①---|
口口口口 |----|
口口口口 |----|
口口口口 |----|
74
口口口口 |----|
口口口口 |----|
口口口口 |----|
口口口口 |----|
75
口口口口 |----|
口口口口 |----|
口口口口 |----|
口口口口 |----|
76
口口口口 |----|
口口口口 |----|
口口口口 |----|
口口口口 |----|
77
①口口① |①---|
②口口② |--②-|
③口口③ |----|
口口口口 |--③-|
78
口口口口 |----|
口口口口 |--①-|
口口口口 |----|
①口口① |----|
79
口①①口 |①---|
口②②口 |--②-|
口③③口 |----|
口口口口 |--③-|
80
口口口口 |----|
口口口口 |----|
口口口口 |----|
口口口口 |----|
81
①②④③ |①---|
口口口口 |②---|
口口口口 |③---|
口口口口 |④---|
82
口口口口 |①---|
①②口③ |②---|
口口口口 |③---|
口口口口 |----|
83
口口口口 |①---|
口口口口 |②---|
①②④③ |③---|
口口口口 |④---|
84
口口口口 |①---|
口口口口 |②---|
口口口口 |③---|
①②口③ |----|
85
①②④③ |①---|
口口口口 |②---|
口口口口 |③---|
口口口口 |④---|
86
口口口口 |①---|
①②口③ |②---|
口口口口 |③---|
口口口口 |----|
87
口口口口 |①---|
口口口口 |②---|
①②④③ |③---|
口口口口 |④---|
88
口口口口 |①---|
口口口口 |----|
口口口口 |----|
①口口口 |----|


不確定度: 0

最終更新:2013年02月26日 21:26