snow prism
Qrispy Joybox

ADVANCED

Level: 7
BPM: 196
Notes: 522

1
口口口口 |----|
口口口口 |----|
口口口口 |----|
口口口口 |----|
2
口口口口 |----|
口口口口 |----|
口口口口 |----|
口口口口 |----|
3
②口①① |①---|
④口③③ |②-③-|
口口⑤⑤ |----|
口口口口 |④-⑤-|
4
口口口口 |----|
口口口口 |①-②-|
①口口口 |----|
口口②② |----|
5
口②①① |①---|
口④③③ |②-③-|
口口⑤⑤ |----|
口口口口 |④-⑤-|
6
口口口口 |----|
口口口口 |①-②-|
口①口口 |----|
口口②② |----|
7
①①口② |①---|
③③口④ |②-③-|
⑤⑤口口 |----|
口口口口 |④-⑤-|
8
口口口口 |----|
口口口口 |①-②-|
口口口① |----|
②②口口 |----|
9
①①②口 |①---|
③③④口 |②-③-|
⑤⑤口口 |----|
口口口口 |④-⑤-|
10
口口口口 |----|
口口口口 |----|
口口口口 |----|
口口口口 |----|
11
口口口① |①---|
口口口口 |----|
②③④⑤ |----|
口口口口 |②③④⑤|
12
口口口口 |①---|
①口②口 |--②-|
口口口口 |--③-|
口③口口 |----|
13
⑤⑥④③ |①-②-|
口口口口 |③-④-|
①②⑧⑦ |⑤-⑥-|
口口口口 |⑦-⑧-|
14
④口口③ |--①-|
①口口① |--②-|
口口口口 |--③-|
②口口② |--④-|
15
口口口口 |①-②-|
③④⑥⑤ |③-④-|
⑦⑧②① |⑤-⑥-|
口口口口 |⑦-⑧-|
16
①③③① |--①-|
口口口口 |--②-|
口口口口 |----|
②口口② |③---|
17
口口口口 |①-②-|
⑤⑥④③ |③-④-|
①②⑧⑦ |⑤-⑥-|
口口口口 |⑦-⑧-|
18
①④③① |--①-|
②口口② |--②-|
口口口口 |--③-|
口口口口 |--④-|
19
口口⑦⑦ |①-②-|
⑦⑦⑥口 |③-④-|
①③④口 |⑤-⑥-|
口⑤②口 |--⑦-|
20
③③口口 |--①-|
口口③③ |--②-|
①①②② |--③-|
②②①① |----|
21
⑤⑥④③ |①-②-|
口口口口 |③-④-|
①②⑧⑦ |⑤-⑥-|
口口口口 |⑦-⑧-|
22
④口口③ |--①-|
①口口① |--②-|
口口口口 |--③-|
②口口② |--④-|
23
口口口口 |①-②-|
③④⑥⑤ |③-④-|
⑦⑧②① |⑤-⑥-|
口口口口 |⑦-⑧-|
24
①③③① |--①-|
口口口口 |--②-|
口口口口 |----|
②口口② |③---|
25
口口口口 |①-②-|
⑤⑥④③ |③-④-|
①②⑧⑦ |⑤-⑥-|
口口口口 |⑦-⑧-|
26
①口口① |--①-|
②③③② |--②-|
口④④口 |--③-|
口口口口 |--④-|
27
口口口口 |----|
口口口口 |----|
口口口口 |----|
口口口口 |----|
28
口口口口 |----|
口口口口 |----|
口口口口 |----|
口口口口 |----|
29
①①口口 |①---|
口口②② |--②-|
③③口口 |----|
口口口口 |③---|
30
口口②③ |--①-|
口口口口 |----|
口口口口 |②---|
口口①① |③---|
31
口口口口 |①---|
①①口口 |--②-|
口口②② |----|
③③口口 |③---|
32
口口口① |----|
①口口口 |----|
口口口口 |①---|
口口口口 |----|
33
①①口口 |①---|
口口②② |--②-|
③③口口 |----|
口口口口 |③---|
34
口口②③ |--①-|
口口口口 |----|
口口口口 |②---|
口口①① |③---|
35
⑤⑥⑦⑧ |①-②-|
①②③④ |③-④-|
口口口口 |⑤-⑥-|
口口口口 |⑦-⑧-|
36
口口口口 |--①-|
①口口口 |--②-|
口口②口 |--③-|
口③口④ |--④-|
37
口③口④ |--①-|
口口口② |--②-|
①口口口 |--③-|
口口口口 |--④-|
38
口口口口 |--①-|
④⑤⑥⑦ |②-③-|
①②③口 |④-⑤-|
口口口口 |⑥-⑦-|
39
口口口口 |①---|
口口口口 |----|
②③④⑤ |----|
①①口口 |②③④⑤|
40
口口口口 |①---|
①口②口 |--②-|
口口口口 |--③-|
口③口口 |----|
41
⑤⑥④③ |①-②-|
口口口口 |③-④-|
①②⑧⑦ |⑤-⑥-|
口口口口 |⑦-⑧-|
42
④口口③ |--①-|
①口口① |--②-|
口口口口 |--③-|
②口口② |--④-|
43
口口口口 |①-②-|
③④⑥⑤ |③-④-|
⑦⑧②① |⑤-⑥-|
口口口口 |⑦-⑧-|
44
①③③① |--①-|
口口口口 |--②-|
口口口口 |----|
②口口② |③---|
45
口口口口 |①-②-|
⑤⑥④③ |③-④-|
①②⑧⑦ |⑤-⑥-|
口口口口 |⑦-⑧-|
46
①④③① |--①-|
②口口② |--②-|
口口口口 |--③-|
口口口口 |--④-|
47
口口⑦⑦ |①-②-|
⑦⑦⑥口 |③-④-|
①③④口 |⑤-⑥-|
口⑤②口 |--⑦-|
48
③③口口 |--①-|
口口③③ |--②-|
①①②② |--③-|
②②①① |----|
49
⑤⑥④③ |①-②-|
口口口口 |③-④-|
①②⑧⑦ |⑤-⑥-|
口口口口 |⑦-⑧-|
50
④口口③ |--①-|
①口口① |--②-|
口口口口 |--③-|
②口口② |--④-|
51
口口口口 |①-②-|
③④⑥⑤ |③-④-|
⑦⑧②① |⑤-⑥-|
口口口口 |⑦-⑧-|
52
①③③① |--①-|
口口口口 |--②-|
口口口口 |----|
②口口② |③---|
53
口口口口 |①-②-|
⑤⑥④③ |③-④-|
①②⑧⑦ |⑤-⑥-|
口口口口 |⑦-⑧-|
54
①口口① |--①-|
②③③② |--②-|
口④④口 |--③-|
口口口口 |--④-|
55
口口口口 |----|
口口口口 |----|
口口口口 |----|
口口口口 |----|
56
口口口口 |----|
口口口口 |----|
口口口口 |----|
口口口口 |----|
57
口④③② |①-②-|
⑤⑥⑦⑧ |③-④-|
口口口口 |⑤-⑥-|
①口口口 |⑦-⑧-|
58
口口口口 |①-②-|
口口口口 |③-④-|
④③②① |--⑤-|
⑥口口⑤ |--⑥-|
59
⑥口口口 |--①-|
④口口⑤ |②-③-|
口③②① |④-⑤-|
口口口口 |--⑥-|
60
口口口口 |--①-|
口口①口 |②-③-|
口②④口 |--④-|
口⑤③口 |⑤---|
61
口④③② |①-②-|
⑤⑥⑦⑧ |③-④-|
口口口口 |⑤-⑥-|
①口口口 |⑦-⑧-|
62
口⑤⑤口 |①-②-|
口口口口 |③-④-|
④③②① |--⑤-|
口⑥⑥口 |--⑥-|
63
口口口口 |--①-|
⑦③②① |②-③-|
口⑤④⑦ |④-⑤-|
口口口⑥ |⑥-⑦-|
64
口②口口 |--①-|
口③③① |--②-|
①③③口 |--③-|
口口②口 |----|
65
口④③② |①-②-|
⑤⑥⑦⑧ |③-④-|
口口口口 |⑤-⑥-|
①口口口 |⑦-⑧-|
66
口口口口 |①-②-|
口口口口 |③-④-|
④③②① |--⑤-|
⑥口口⑤ |--⑥-|
67
口口口口 |--①-|
④⑤⑥⑦ |②-③-|
口③②① |④-⑤-|
口口口口 |⑥-⑦-|
68
①②③④ |①-②-|
口口口口 |③-④-|
口⑥⑤口 |--⑤-|
口口口口 |⑥---|
69
②③④口 |①-②-|
⑧⑦⑥⑤ |③-④-|
口口口口 |⑤-⑥-|
口口口① |⑦-⑧-|
70
口口口⑤ |①-②-|
口口口口 |③-④-|
④③②① |--⑤-|
⑥口口口 |--⑥-|
71
口口口口 |----|
口口口口 |----|
口口口口 |----|
口口口口 |----|
72
①口口① |----|
口口口口 |①---|
口口口口 |--②-|
②口口② |----|
73
口口口口 |①---|
口①①口 |----|
口①①口 |----|
口口口口 |----|
74
口口口口 |----|
口口口口 |----|
口口口口 |----|
口口口口 |----|
75
口口口口 |----|
口口口口 |----|
口口口口 |----|
口口口口 |----|
76
口口口口 |----|
口口口口 |----|
口口口口 |----|
口口口口 |----|
77
②口①① |①---|
④口③③ |②-③-|
口口⑤⑤ |----|
口口口口 |④-⑤-|
78
口口口口 |----|
口口口口 |①-②-|
①口口口 |----|
口口②② |----|
79
口②①① |①---|
口④③③ |②-③-|
口口⑤⑤ |----|
口口口口 |④-⑤-|
80
口①①口 |----|
口口口口 |----|
口口口口 |①---|
口口口口 |----|
81
口⑨⑩⑤ |①-②③|
①口③② |④-⑤-|
口⑥⑧⑦ |⑥-⑦⑧|
④口口口 |⑨-⑩-|
82
①口口口 |①-②③|
⑥口⑤⑥ |④-⑤-|
⑦口口⑦ |⑥---|
口④③② |⑦---|
83
④口口口 |①-②③|
⑥①⑧⑦ |④-⑤-|
⑨口⑤⑩ |⑥-⑦⑧|
口口③② |⑨-⑩-|
84
④口口口 |①-②③|
⑥口口口 |④-⑤-|
口口⑤口 |⑥---|
①口③② |----|
85
④口⑤口 |①-②③|
⑥口⑩口 |④-⑤-|
口①⑧⑦ |⑥-⑦⑧|
⑨口③② |⑨-⑩-|
86
④口口⑤ |①-②③|
⑥①口⑥ |④-⑤-|
⑦口口⑦ |⑥---|
口口③② |⑦---|
87
口①②口 |①②③④|
口③④口 |⑤⑥⑦⑧|
口⑤⑥口
口⑦⑧口

⑮⑮口口
⑨口口⑩
⑪口口⑫ |⑨⑩⑪⑫|
⑬口口⑭ |⑬⑭⑮-|


不確定度: 0

最終更新:2013年02月26日 21:26