LANA - ヒトリノウタ -
TOMOSUKE×Jazzin'park

EXTREME

Level: 8
BPM: 180
Notes: 538

1
口①口口 |①-②-|
②⑤④⑤ |③-④-|
⑧③⑦口 |⑤-⑥-|
口口⑥口 |⑦-⑧-|
2
①②①口 |①-②-|
③⑥⑤口 |③-④-|
⑦④⑦口 |⑤-⑥-|
口⑧口口 |⑦-⑧-|
3
口⑤口口 |①-②-|
④⑦⑥口 |③-④-|
口③口② |⑤-⑥-|
①⑧①口 |⑦-⑧-|
4
口口口⑤ |①-②-|
③⑥口口 |③-④-|
④口口⑦ |⑤-⑥-|
①⑧①② |⑦-⑧-|
5
⑤②④口 |①---|
口④③⑤ |②-③-|
口口口口 |----|
①口①口 |④-⑤-|
6
口口口口 |----|
口口口口 |①-②-|
④①③口 |----|
口③②④ |③-④-|
7
口①③口 |----|
口③②口 |①-②-|
口口口口 |----|
口口口口 |③---|
8
①口口② |①---|
②口口① |②---|
③口口④ |③---|
④口口③ |④---|
9
口①口口 |①-②-|
②⑤④⑤ |③-④-|
⑧③⑦口 |⑤-⑥-|
口口⑥口 |⑦-⑧-|
10
①②①口 |①-②-|
③⑥⑤口 |③-④-|
⑦④⑦口 |⑤-⑥-|
口⑧口口 |⑦-⑧-|
11
口⑤口口 |①-②-|
④⑦⑥口 |③-④-|
口③口② |⑤-⑥-|
①⑧①口 |⑦-⑧-|
12
口口口⑤ |①-②-|
③口⑥口 |③-④-|
④口⑦口 |⑤-⑥-|
①⑧①② |⑦-⑧-|
13
⑤②⑤口 |①---|
口③口④ |②-③-|
口口口口 |④---|
①口①口 |⑤---|
14
口口口口 |①-②-|
口口口口 |③-④-|
⑤⑥③⑥ |⑤---|
①②④口 |⑥---|
15
⑥③⑥⑤ |①-②-|
口④②① |③-④-|
口口口口 |⑤---|
口口口口 |⑥---|
16
口口口口 |①-②-|
⑦口⑦口 |③-④-|
①⑥④⑥ |⑤--⑥|
口③⑤② |--⑦-|
17
口口口口 |①-②-|
口①口口 |③-④-|
④口③口
口②口①

⑥口⑥口
口⑦口⑤
口口口口 |⑤---|
口口口口 |⑥-⑦-|
18
口①口口 |①-②-|
②⑦④口 |③-④-|
⑧③⑥口 |⑤-⑥-|
口⑤口口 |⑦-⑧-|
19
①口口② |①-②-|
口口口③ |③-④-|
口⑤⑥口 |⑤---|
④⑥⑤口 |⑥---|
20
①口③① |①-②-|
口②④口 |③-④-|
口口口口
口口口口

⑧口口口
⑦口口口
口口口⑥ |⑤-⑥-|
口口口⑤ |⑦-⑧-|
21
口③⑤② |①---|
口⑥④口 |②---|
口口口口 |③-④-|
口①①口 |⑤-⑥-|
22
⑥口口口 |①-②-|
⑤口口⑥ |③-④-|
口①③⑤ |⑤---|
口④②口 |⑥---|
23
口③⑤① |----|
②⑥④口 |①-②-|
口口口口 |③-④-|
口口口口 |⑤-⑥-|
24
口口口④ |①-②-|
④口口⑤ |③---|
⑤①③口 |④---|
口口②口 |⑤---|
25
①口口口 |①---|
口口口口 |----|
口口口① |----|
口口口口 |----|
26
口口口口 |----|
口口口口 |----|
口口口口 |----|
口口口口 |----|
27
①口口口 |----|
口口①口 |----|
口口口口 |----|
口口口口 |①---|
28
口口①口 |①---|
口③口② |②---|
④②口口 |③---|
口口④口 |④---|
29
口口②口 |①---|
口口口③ |②-③-|
⑦口口④ |④-⑤-|
①⑥⑤① |⑥-⑦-|
30
口②③口 |①-②-|
①⑤⑥④ |③-④-|
口⑥⑤口 |⑤---|
口口口口 |⑥---|
31
口①口口 |----|
②口口口 |①-②-|
③口口⑥ |③-④-|
口④⑤口 |⑤-⑥-|
32
口③②口 |①-②-|
口⑤④① |③---|
口④⑤口 |④---|
口口口口 |⑤---|
33
①②④① |①---|
口口口口 |②---|
口口口③ |③---|
口口口口 |④---|
34
口口口口 |①---|
口口口② |②---|
口口口④ |③---|
口③①口 |④---|
35
口口口口 |①---|
③口口口 |②---|
①口口口 |③---|
口④②口 |④---|
36
口①③口 |①---|
口口口口 |②---|
②④口口 |③---|
口口⑤口 |④-⑤-|
37
口口口口 |----|
口口口口 |----|
①口口① |----|
口口口口 |①---|
38
口口口① |①---|
口口②口 |②---|
口③口口 |③---|
口⑥⑤④ |④-⑤-⑥-|
39
④⑤⑥口 |①---|
口③口口 |②---|
口口②口 |③---|
①口口口 |④-⑤-⑥-|
40
口口口① |①---|
口口②口 |②---|
口③口口 |③---|
口⑥⑤④ |④-⑤-⑥-|
41
口⑤④口 |①-②-|
口⑥②口 |③-④-|
口⑤③口 |⑤---|
①⑥口口 |⑥---|
42
①口口① |①-②-|
④口②④ |③---|
③⑤口③ |④-⑤-|
④口⑥④ |⑥---|
43
①⑤②口 |①-②-|
口⑥④口 |③-④-|
口⑤③口 |⑤---|
口⑥口口 |⑥---|
44
①口口① |①---|
③口②③ |②---|
口口④口 |③-④-|
③⑤口③ |⑤---|
45
④①①④ |①---|
口口口口 |----|
③②②③ |②---|
口口口口 |③-④-|
46
口口口口 |①---|
④②①④ |②-③-|
⑤口口⑤ |④---|
③口口③ |⑤---|
47
①口口① |①---|
口口口口 |----|
口口②口 |----|
②口口口 |②---|
48
口口口口 |①-②-|
口③④口 |--③-|
④②口③ |----|
口口①口 |④---|
49
①口口① |①---|
口口口口 |----|
②口口口 |----|
口口口口 |②---|
50
口口口口 |①-②-|
口口口口 |③---|
口口④③ |----|
口②①口 |④---|
51
口口口口 |①---|
口口⑤口 |②-③-|
③口口口 |----|
口①④② |④-⑤-|
52
口口口口 |①---|
口②口口 |②-③-|
口①③口 |----|
口口口口 |----|
53
口①口口 |----|
口②口口 |----|
口口口口 |----|
口口口口 |①-②-|
54
口口口口 |①---|
口口②口 |②-③-|
口口③口 |④---|
口口①④ |----|
55
口口口① |①---|
②口口口 |----|
口口口口 |----|
口口口口 |②---|
56
②口口口 |①---|
口口口口 |----|
口口口口 |②---|
①口口口 |----|
57
口①口口 |----|
口口口口 |----|
口①口口 |①---|
口口口口 |----|
58
口口口口 |①---|
口口②口 |----|
口口①口 |②---|
口口②口 |----|
59
口②口口 |①---|
口①口③ |②---|
口②口口 |③---|
口口口口 |----|
60
口口②口 |①---|
③口①口 |②---|
口口②口 |③---|
口口口口 |----|
61
口口口口 |----|
口口口口 |----|
①口口口 |----|
口口口① |①---|
62
口口口⑥ |①--②|
④⑥口口 |--③-|
口⑤④② |④--⑤|
②③①口 |--⑥-|
63
口②②口 |①---|
口口①口 |----|
口口口口 |----|
口口口口 |②---|
64
口⑦口⑧ |①-②-|
⑤口⑥口 |③-④-|
口③口④ |⑤-⑥-|
①口②口 |⑦-⑧-|
65
⑧口⑦口 |①-②-|
口⑥口⑤ |③-④-|
④口③口 |⑤-⑥-|
口②口① |⑦-⑧-|
66
口⑦口⑧ |①-②-|
⑤口⑥口 |③-④-|
口③口④ |⑤-⑥-|
①口②口 |⑦-⑧-|
67
口口口口 |①---|
④②⑤⑥ |②-③-|
口④③⑤ |④---|
口①①口 |⑤-⑥-|
68
口口口口 |①-②-|
口口口口 |③---|
①口③⑤ |④---|
②①④③ |⑤---|
69
④②⑥⑦ |①---|
口④③⑥ |②-③-|
口①口口 |④-⑤-|
口⑤口口 |⑥-⑦-|
70
口口口口 |①-②-|
①口③⑤ |③---|
②①④③ |④---|
口口口口 |⑤---|
71
口口口口 |①---|
④②⑤⑥ |②-③-|
口④③⑤ |④---|
口①①口 |⑤-⑥-|
72
口口口口 |①-②-|
口口口口 |③---|
①口③⑤ |④---|
②①④③ |⑤---|
73
④②⑥⑦ |①---|
口④③⑥ |②-③-|
口①口口 |④-⑤-|
口⑤口口 |⑥-⑦-|
74
口口口⑥ |①-②-|
①④③口 |③-④-|
②①⑤③ |⑤---|
口口口口 |⑥---|
75
口口口口 |①---|
⑥⑤②④ |②-③-|
⑤③④口 |④---|
口①①口 |⑤-⑥-|
76
口口口口 |①-②-|
口口口口 |③---|
⑤③口① |④---|
③④①② |⑤---|
77
⑦⑥②④ |①---|
⑥③④口 |②-③-|
口口①口 |④-⑤-|
口口⑤口 |⑥-⑦-|
78
口口口口 |①-②-|
⑥③④① |③-④-|
③⑤①② |⑤---|
口口口口 |⑥---|
79
口口口口 |①---|
⑥⑤②④ |②-③-|
⑤③④口 |④---|
口①①口 |⑤-⑥-|
80
口口口口 |①-②-|
口口口口 |③---|
⑤③口① |④---|
③④①② |⑤---|
81
⑦⑥②④ |①---|
⑥③④口 |②-③-|
口口①口 |④-⑤-|
口口⑤口 |⑥-⑦-|
82
口口口口 |①-②-|
⑥③④① |③-④-|
③⑤①② |⑤---|
口口口口 |⑥---|

不確定度: 1

最終更新:2013年02月15日 22:17