雨ノチHello
TLION69

EXTREME

Level: 9
BPM: 189
Notes: 646

1
口口口口 |----|
口口口口 |----|
口口口口 |----|
口口口口 |----|
2
口口口口 |①-②-|
②①①② |----|
②①①② |----|
口口口口 |----|
3
口口口口 |----|
口口口口 |----|
口口口口 |----|
口口口口 |----|
4
口②②口 |①-②-|
⑥①①③ |--③④|
④①①⑦ |⑤---|
口②②⑤ |--⑥⑦|
5
④口口口 |①---|
口口口⑤ |②-③-|
⑥⑧⑦口 |④⑤⑥-|
①③②口 |⑦-⑧-|
6
口口口口 |①-②-|
口口口口 |③-④-|
⑥⑧⑦⑤ |⑤-⑥-|
②④③① |⑦-⑧-|
7
⑥⑧⑦⑤ |①-②-|
②④③① |③-④-|
口口口口 |⑤-⑥-|
口口口口 |⑦-⑧-|
8
口⑧⑦口 |①-②-|
口⑥⑤口 |③-④-|
口④③口 |⑤-⑥-|
口②①口 |⑦-⑧-|
9
②口口① |①-②③|
口⑧⑧③ |④-⑤⑥|
④⑧⑧⑤ |⑦---|
口⑥⑦口 |⑧---|
10
④⑤③③ |①-②-|
③⑥口口 |③-④-|
②⑦⑦⑦ |⑤-⑥-|
①⑧口① |⑦-⑧-|
11
④⑤口口 |①-②-|
③⑥③③ |③-④-|
②⑦口口 |⑤-⑥-|
①口⑦⑦ |⑦---|
12
④⑤⑦③ |①-②-|
③⑥⑦③ |③-④-|
②⑦口口 |⑤-⑥-|
①⑧口口 |⑦-⑧-|
13
④⑤口口 |①-②-|
③⑥口口 |③-④-|
②⑦⑦③ |⑤-⑥-|
①口⑦③ |⑦---|
14
④⑤口⑦ |①-②-|
③⑥③口 |③-④-|
②⑦⑦口 |⑤-⑥-|
①⑧口③ |⑦-⑧-|
15
④⑤⑦口 |①-②-|
③⑥口③ |③-④-|
②⑦口⑦ |⑤-⑥-|
①口③口 |⑦---|
16
口④口口 |①-②-|
③⑤③⑥ |③---|
②⑥口口 |④-⑤-|
①⑦③⑥ |⑥-⑦-|
17
④口⑦③ |①-②-|
③⑥口口 |③-④-|
②口⑤③ |⑤-⑥-|
①口口口 |⑦---|
18
口口口口 |----|
口口口① |----|
口口口口 |----|
①口口口 |①---|
19
③④⑤口 |--①-|
②口⑥口 |②-③-|
①口⑦⑥ |④-⑤-|
口口口② |⑥-⑦-|
20
⑤口口⑤ |①---|
④口口② |②-③-|
③①口口 |--④-|
②口口口 |⑤---|
21
⑤④③口 |--①-|
⑥口②口 |②-③-|
⑦口①⑥ |④-⑤-|
口口口② |⑥-⑦-|
22
口口⑤⑤ |①---|
口口④② |②-③-|
口①③口 |--④-|
口口②口 |⑤---|
23
①口口口 |----|
口②口口 |①---|
③口口③ |②---|
口口口① |③---|
24
口①口③ |----|
②口口① |①---|
口③口口 |②---|
口口口口 |③---|
25
③口口口 |----|
口②口口 |①---|
口口①口 |②---|
口口口① |③---|
26
口④③③ |①---|
④口③③ |②---|
①④②② |③---|
④①②② |④---|
27
⑦口⑧口 |①-②-|
口⑤⑦⑥ |③-④-|
③口④⑤ |⑤-⑥-|
口①③② |⑦-⑧-|
28
⑥口口① |①---|
④口口口 |②-③-|
②⑥③口 |④-⑤-|
①⑤②口 |⑥---|
29
⑦④③② |①-②-|
⑤⑤口口 |③-④-|
③⑥⑦⑧ |⑤-⑥-|
①口口口 |⑦-⑧-|
30
⑥⑥③口 |①---|
④⑤②① |②-③-|
②口口口 |④-⑤-|
①口口口 |⑥---|
31
口口口① |----|
③口②口 |①---|
口口口③ |②---|
①口口口 |③---|
32
①口口③ |----|
口②口口 |①---|
③口口口 |②---|
口口口① |③---|
33
①口②口 |----|
口③口口 |①---|
口口③口 |②---|
口②口① |③---|
34
口口④③ |①---|
口④口③ |②---|
①①④② |③---|
①口②② |④---|
35
口①口口 |①---|
①口口口 |----|
口①口口
①口口口

口口口口
口口口口
口口口口 |②-③-|
⑤④③② |④-⑤-|
36
⑤⑥⑦⑦ |①-②-|
③④口口 |③-④-|
②①口口 |⑤-⑥-|
口口口口 |⑦---|
37
口口口口 |①---|
口口①① |----|
口口①口 |②-③-|
②③④⑤ |④-⑤-|
38
⑦⑦⑥⑤ |①-②-|
口口④③ |③-④-|
口口①② |⑤-⑥-|
口口口口 |⑦---|
39
口口口口 |①---|
口口④④ |②---|
口③②口 |③---|
①①口口 |④---|
40
口①②② |①---|
口口口口 |②---|
口口③③ |③---|
口口④④ |④---|
41
③④口② |①---|
④口②口 |②---|
①口口口 |③---|
口①口口 |④---|
42
口口①② |①---|
口①②③ |②---|
①②③④ |③---|
②③④口 |④---|
43
③口口④ |①---|
口口口口 |②---|
口口口口 |③---|
②口口① |④---|
44
口①②口 |①---|
①②①② |②---|
口①②①
口口①口

口口口⑤
口口⑥口
⑤口口口 |③-④-|
③口口④ |⑤-⑥-|
45
③①口口 |①-②-|
①②口④ |③-④-|
⑦⑦③⑤ |⑤-⑥-|
⑤⑧⑥口 |⑦-⑧-|
46
口①口口 |①---|
①口口口 |②-③-|
口口口口
③口口②

口口口口
⑦口口⑥
⑤口口④ |④-⑤-|
口口口口 |⑥-⑦-|
47
④口口④ |①-②-|
口②①口 |--③-|
口③口③ |--④-|
⑤口③口 |--⑤-|
48
口②①口 |①---|
②①②① |②---|
①②①口
口①口口

④口口口
口⑥口口
口口口⑤ |③-④-|
口口口③ |⑤-⑥-|
49
口口⑦③ |①-②-|
口⑧⑥① |③-④-|
①口⑤⑦ |⑤-⑥-|
②③④⑤ |⑦-⑧-|
50
口口口口 |①---|
口口口① |②-③-|
①口口口
②口口③

口口口口
⑥口口⑦
口④⑤口 |④-⑤-|
口口口口 |⑥-⑦-|
51
②口口② |①---|
口口口口 |----|
①口口① |②---|
口①①口 |----|
52
口口①口 |①---|
口①②① |②---|
①②①②
口①②口

③④口口
⑤口口口
口口⑥口 |③-④-|
口口口⑤ |⑤-⑥-|
53
⑤⑧⑥口 |①-②-|
⑦⑦③⑤ |③-④-|
①②口④ |⑤-⑥-|
③①口口 |⑦-⑧-|
54
③口口② |①---|
口口口口 |②-③-|
①口口口
口①口口

口口口口
⑤口口④
⑦口口⑥ |④-⑤-|
口口口口 |⑥-⑦-|
55
口口④④ |①-②-|
口口口④ |--③-|
口②①口 |--④-|
③口口⑤ |--⑤-|
56
口①口口 |①---|
①②①口 |②---|
②①②①
口②①口

口口④③
口口口⑤
口⑥口口 |③-④-|
⑤口口口 |⑤-⑥-|
57
②口口口 |①-②-|
①③④口 |③-④-|
口口口①
口口口③

口⑤⑥⑤
⑧口口⑦
口⑧口口 |⑤-⑥-|
口口口口 |⑦-⑧-|
58
②口口③ |①---|
口④⑤⑥ |②-③-|
⑦口口① |④-⑤-|
口口口⑥ |⑥-⑦-|
59
②②①口 |①---|
③③口口 |--②-|
口口①口 |③---|
口口口口 |----|
60
⑧⑥④② |①-②-|
口口口口 |③-④-|
口①口口 |⑤-⑥-|
①③⑤⑦ |⑦-⑧-|
61
口口口口 |①-②-|
⑦⑤③② |③-④-|
①②④⑥ |⑤-⑥-|
口口口⑧ |⑦-⑧-|
62
①③⑤⑦ |①-②-|
口口口口 |③-④-|
①③口口 |⑤-⑥-|
⑥④②⑧ |⑦-⑧-|
63
③⑤④⑤ |--①-|
口⑤⑤⑤ |②-③-|
①⑤②⑤ |④-⑤-|
口⑥⑥⑥ |⑥---|
64
⑦口④口 |①-②-|
⑤口⑧口 |③-④-|
③口②口 |⑤-⑥-|
①口⑥口 |⑦-⑧-|
65
⑥口④口 |①-②-|
⑤口口口 |③-④-|
③⑥②⑥ |⑤---|
①⑤口⑤ |⑥---|
66
⑦⑥口② |①-②-|
⑤①④① |③-④-|
③口口口 |⑤-⑥-|
①口口⑧ |⑦-⑧-|
67
⑥⑥口⑤ |①-②-|
⑤口口口 |③-④-|
③⑥口⑤ |⑤---|
①④②口 |⑥---|
68
⑦口①⑧ |①-②-|
⑤口口⑥ |③-④-|
③口①④ |⑤-⑥-|
①口口② |⑦-⑧-|
69
⑥口口口 |①-②-|
⑤⑤⑥口 |③-④-|
③口②④ |⑤---|
①口⑤⑥ |⑥---|
70
⑦口④① |①-②-|
⑤⑥口② |③-④-|
③⑧①口 |⑤-⑥-|
①口口口 |⑦-⑧-|
71
⑦口口口 |①-②-|
⑤⑧口⑥ |③-④-|
③口口④ |⑤-⑥-|
①口②口 |⑦-⑧-|
72
口④⑤① |①---②-|
④口①⑤ |--③---|
③口②⑥ |④---⑤-|
口③⑥② |--⑥---|


不確定度: 0

最終更新:2013年04月29日 17:29