Water Horizon
青龍

BASIC

Level: 5
BPM: 191
Notes: 366

1
口口口口 |----|
口口口口 |----|
口口口口 |----|
口口口口 |----|
2
口口口口 |①---|
口口口口 |----|
口①①口 |----|
口口口口 |----|
3
口口口口 |----|
口口口口 |----|
口口口口 |----|
口口口口 |----|
4
口口口口 |①---|
口①②口 |②---|
口②①口 |----|
口口口口 |----|
5
①①②② |----|
口口口口 |----|
口口口口 |①---|
口口口口 |②---|
6
口口口口 |①---|
口口口口 |----|
口①①口 |----|
口口口口 |----|
7
口口口口 |----|
口口口口 |----|
口口口口 |----|
口口口口 |----|
8
口口口口 |①---|
口①②口 |②---|
口②①口 |----|
口口口口 |----|
9
口口口口 |①---|
③口口④ |②---|
①口口② |③---|
口口口口 |④---|
10
口①②口 |①---|
口③④口 |②---|
口口口口 |③---|
口口口口 |④---|
11
口口口口 |①---|
口口口口 |②---|
口①②口 |③---|
口③④口 |④---|
12
⑦口口⑧ |①-②-|
⑤口口⑥ |③-④-|
③口口④ |⑤-⑥-|
①口口② |⑦-⑧-|
13
口口口口 |①---|
③②②③ |----|
口①①口 |②---|
口口口口 |③---|
14
口口口口 |①---|
口口口口 |②---|
①②④③ |③---|
口口口口 |④---|
15
口口③③ |①---|
①②④④ |②---|
口口口口 |③---|
口口口口 |④---|
16
口口口口 |①---|
口口口口 |②---|
①②④③ |③---|
口口口口 |④---|
17
口口③③ |①---|
①②④④ |②---|
口口口口 |③---|
口口口口 |④---|
18
口口口口 |①---|
口口口口 |②---|
①②④③ |③---|
口口口口 |④---|
19
口口③③ |①---|
①②④④ |②---|
口口口口 |③---|
口口口口 |④---|
20
口口口口 |①---|
口口口口 |②---|
①②④③ |③---|
口口口口 |④---|
21
口口③③ |①---|
①②④④ |②---|
口口口口 |③---|
口口口口 |④---|
22
口口口口 |①---|
口口口口 |②---|
③④②① |③---|
口口口口 |④---|
23
口口口口 |①---|
④③②① |②---|
口口口口 |③---|
口口口口 |④---|
24
口口口口 |①---|
口口口口 |②---|
③④②① |③---|
口口口口 |④---|
25
口口口口 |①---|
④③②① |②---|
口口口口 |③---|
口口口口 |④---|
26
口口口口 |①---|
口口口口 |②---|
③④②① |③---|
口口口口 |④---|
27
口口口口 |①---|
④③②① |②---|
口口口口 |③---|
口口口口 |④---|
28
口口口口 |①---|
口口口口 |②---|
③④②① |③---|
口口口口 |④---|
29
③③口口 |①---|
④④②① |②---|
口口口口 |③---|
口口口口 |④---|
30
口口口口 |①---|
口口口口 |----|
口①口② |②---|
口口口口 |----|
31
口口口口 |①---|
口①②③ |②---|
口口口口 |③---|
口口口口 |----|
32
口口口口 |①---|
口口口口 |----|
口①口② |②---|
口口口口 |----|
33
口口口口 |①---|
④③②① |②---|
口口口口 |③---|
口口口口 |④---|
34
口口口口 |①---|
口口口口 |----|
口①口② |②---|
口口口口 |----|
35
口口口口 |①---|
口①②③ |②---|
口口口口 |③---|
口口口口 |----|
36
口口口口 |①---|
口口口口 |----|
口①口② |②---|
口口口口 |----|
37
口口口口 |①---|
④③②① |②---|
口口口口 |③---|
口口口口 |④---|
38
口口口口 |①---|
口口口口 |----|
②口①口 |②---|
口口口口 |----|
39
口口口口 |①---|
③②①口 |②---|
口口口口 |③---|
口口口口 |----|
40
口口口口 |①---|
口口口口 |----|
口①口② |②---|
口口口口 |----|
41
口口口口 |①---|
①②③④ |②---|
口口口口 |③---|
口口口口 |④---|
42
口口口口 |①---|
口口口口 |----|
②口①口 |②---|
口口口口 |----|
43
口口口口 |①---|
③②①口 |②---|
口口口口 |③---|
口口口口 |----|
44
口口口口 |①---|
口口口口 |----|
口①口② |②---|
口口口口 |----|
45
口口口口 |①---|
①②③④ |②---|
口口口口 |③---|
口口口口 |④---|
46
口口口口 |①---|
口④口口 |②---|
③口①口 |③---|
口②口口 |④---|
47
口②①口 |①---|
口口③口 |②---|
口④口口 |③---|
口口口口 |④---|
48
口口口口 |①---|
口④口口 |②---|
③口①口 |③---|
口②口口 |④---|
49
口②①口 |①---|
口口③口 |②---|
口④口口 |③---|
口口口口 |④---|
50
口口口口 |①---|
①②③④ |②---|
口口口口 |③---|
口口口口 |④---|
51
④③②① |①---|
口口口口 |②---|
口口口口 |③---|
口口口口 |④---|
52
口口口口 |①---|
①②③④ |②---|
口口口口 |③---|
口口口口 |④---|
53
④③②① |①---|
口口口口 |②---|
口口口口 |③---|
口口口口 |④---|
54
口口口口 |①---|
口①①口 |----|
口口口口 |----|
口口口口 |----|
55
口口口口 |①---|
口口口口 |----|
口口口口 |----|
口①①口 |----|
56
口口口口 |①---|
①口口① |----|
口口口口 |----|
口口口口 |----|
57
口口口口 |①---|
口口口口 |----|
口口口口 |----|
①口口① |----|
58
口口口口 |①---|
口①①口 |----|
口口口口 |----|
口口口口 |----|
59
口口口口 |①---|
口口口口 |----|
口口口口 |----|
口①①口 |----|
60
口口口口 |①---|
①口口① |----|
口口口口 |----|
口口口口 |----|
61
口口口口 |①---|
口口口口 |----|
口口口口 |----|
①口口① |----|
62
口口口口 |①---|
口①口口 |----|
口②口口 |②---|
口口口口 |----|
63
口口口口 |①---|
口口口口 |----|
口口口口 |②---|
口①②口 |----|
64
口口口口 |①---|
口口①口 |----|
口口②口 |②---|
口口口口 |----|
65
口口口口 |①---|
口口口口 |----|
口口口口 |②---|
口②①口 |----|
66
口口口口 |①---|
口①口口 |----|
口②口口 |②---|
口口口口 |----|
67
口口口口 |①---|
口口口口 |----|
口口口口 |②---|
口①②口 |----|
68
口口口口 |①---|
口口①口 |----|
口口②口 |②---|
口口口口 |----|
69
口口口口 |①---|
口口口口 |----|
口口口口 |②---|
口②①口 |----|
70
口口口口 |①---|
口①①口 |----|
口②②口 |②---|
口口口口 |----|
71
口口口口 |①---|
③口口③ |②---|
②口口② |③---|
①口口① |----|
72
口口口口 |①---|
口②②口 |----|
口①①口 |②---|
口口口口 |----|
73
①口口① |①---|
②口口② |②---|
③口口③ |③---|
④口口④ |④---|
74
口口口口 |①---|
口①①口 |----|
口②②口 |②---|
口口口口 |----|
75
④口口④ |①---|
③口口③ |②---|
②口口② |③---|
①口口① |④---|
76
口口口口 |①---|
口②②口 |----|
口①①口 |②---|
口口口口 |----|
77
①口口① |①---|
②口口② |②---|
③口口③ |③---|
口口口口 |----|
78
口口口口 |①---|
②口口② |----|
③口①③ |②---|
口①口口 |③---|
79
口①口口 |①---|
口口②口 |②---|
口③口口 |③---|
口口④口 |④---|
80
③口口③ |①---|
②口口② |②---|
①口口① |③---|
口口口口 |----|
81
口口①口 |①---|
口②口口 |②---|
口口③口 |③---|
口④口口 |④---|
82
④口口④ |①---|
③口口③ |②---|
②口口② |③---|
①口口① |④---|
83
口①口口 |①---|
口口②口 |②---|
口③口口 |③---|
口口④口 |④---|
84
④口口④ |①---|
③口口③ |②---|
②口口② |③---|
①口口① |④---|
85
口口①口 |①---|
口②口口 |②---|
口口③口 |③---|
口④口口 |④---|
86
③口口③ |①---|
②口口② |②---|
①口口① |③---|
口口口口 |----|
87
口口口口 |①---|
口口口口 |②---|
③④②① |③---|
口口口口 |④---|
88
口口口口 |①---|
③④②① |②---|
口口口口 |③---|
口口口口 |④---|
89
口口口口 |①---|
口口口口 |②---|
③④②① |③---|
口口口口 |④---|
90
①口口① |①---|
②口口② |②---|
③口口③ |③---|
④口口④ |④---|
91
口口④口 |①---|
口③口口 |②---|
口口②口 |③---|
口①口口 |④---|
92
口①口口 |①---|
口口②口 |②---|
口③口口 |③---|
口口④口 |④---|
93
④口口④ |①---|
③口口③ |②---|
②口口② |③---|
①口口① |④---|
94
口①①口 |①---|
口②②口 |②---|
口③③口 |③---|
口④④口 |④---|
95
口口口口 |①---|
①口口① |----|
①口口① |----|
口口口口 |----|


不確定度: 0

最終更新:2013年02月14日 21:34