ナナホシ
S-C-U

BASIC

Level: 5
BPM: 166
Notes: 287

1
口口口口 |----|
口口口口 |----|
口口口口 |----|
口口口口 |----|
2
口口口① |①---|
口口③② |--②-|
口口口口 |----|
口口口口 |③---|
3
口口口口 |--①-|
口口口口 |----|
口②①口 |②---|
口③口口 |③---|
4
①口口口 |①---|
②③口口 |--②-|
口口口口 |----|
口口口口 |③---|
5
口口口口 |--①-|
口口口口 |----|
口①③口 |②---|
口口②口 |③---|
6
口口口① |①---|
口口③② |--②-|
口口口口 |----|
口口口口 |③---|
7
口口口口 |--①-|
口口口口 |----|
口②①口 |②---|
口③口口 |③---|
8
①口口口 |①---|
②③口口 |--②-|
口口口口 |----|
口口口口 |③---|
9
口口口口 |--①-|
口口口口 |----|
口①③口 |②---|
口口②口 |③---|
10
口②①口 |①--②|
④口口③ |--③-|
口⑥⑤口 |-④--|
口口口口 |⑤-⑥-|
11
口口口口 |①--②|
口⑥⑤口 |--③-|
④口口③ |-④--|
口②①口 |⑤-⑥-|
12
⑤口口① |①-②-|
⑥口口② |③-④-|
⑦口口③ |⑤-⑥-|
⑧口口④ |⑦-⑧-|
13
口⑧⑦口 |①-②-|
口⑥⑤口 |③-④-|
口④③口 |⑤-⑥-|
口②①口 |⑦-⑧-|
14
②口口① |①--②|
口④③口 |--③-|
⑥口口⑤ |-④--|
口口口口 |⑤-⑥-|
15
口口口口 |①--②|
⑥口口⑤ |--③-|
口④③口 |-④--|
②口口① |⑤-⑥-|
16
口⑧①口 |①-②-|
口⑦②口 |③-④-|
口⑥③口 |⑤-⑥-|
口⑤④口 |⑦-⑧-|
17
②口口① |①-②-|
④口口③ |③-④-|
⑥口口⑤ |⑤-⑥-|
⑧口口⑦ |⑦-⑧-|
18
口口口口 |----|
口③①口 |①---|
口口②口 |②---|
口口口口 |③---|
19
口口口口 |①---|
口口口④ |②---|
口①口③ |③---|
口②口口 |④---|
20
①②③口 |①---|
口口口口 |②---|
口口口口 |③---|
口口口口 |----|
21
口口口口 |①---|
口口口口 |②---|
口口口口 |③---|
口③②① |----|
22
口口口口 |----|
口①③口 |①---|
口②口口 |②---|
口口口口 |③---|
23
口口口口 |①---|
④口口口 |②---|
③口①口 |③---|
口口②口 |④---|
24
口③②① |①---|
口口口口 |②---|
口口口口 |③---|
口口口口 |----|
25
口口口口 |①---|
口口口口 |②---|
口口口口 |③---|
①②③口 |----|
26
口口口口 |----|
口②口口 |①---|
口①③口 |②---|
口口口口 |③---|
27
口口②口 |①---|
③口①口 |②---|
④口口口 |③---|
口口口口 |④---|
28
口口口口 |①---|
口口口口 |②---|
口口口口 |③---|
口③②① |----|
29
①②③口 |①---|
口口口口 |②---|
口口口口 |③---|
口口口口 |----|
30
口口口口 |----|
口口②口 |①---|
口③①口 |②---|
口口口口 |③---|
31
口②口口 |①---|
口①口③ |②---|
口口口④ |③---|
口口口口 |④---|
32
口口口口 |①---|
口口口口 |②---|
口口口口 |③---|
①②③口 |----|
33
口③②① |①---|
口口口口 |②---|
口口口口 |③---|
口口口口 |----|
34
口口口口 |①---|
口口口① |----|
②口口口 |②---|
口口口口 |----|
35
口口口口 |①---|
②口口口 |----|
口口口① |②---|
口口口口 |----|
36
口口①口 |①---|
口口口口 |----|
口口口口 |②---|
口②口口 |----|
37
口①口口 |①---|
口口口口 |----|
口口口口 |②---|
口口②口 |----|
38
口口口口 |①---|
口口口口 |----|
口②③口 |②---|
①口口口 |③---|
39
口③②口 |①---|
口口口① |----|
口口口口 |②---|
口口口口 |③---|
40
口口口口 |①---|
①口口口 |----|
口②③口 |②---|
口口口口 |③---|
41
口口口口 |①---|
②①①② |----|
口口口口 |②---|
口口口口 |----|
42
口口口口 |①---|
口口口口 |----|
①口口① |----|
口口口口 |----|
43
③④②① |①---|
口口口口 |②---|
口口口口 |③---|
口口口口 |④---|
44
口口口口 |①---|
③④②① |②---|
口口口口 |③---|
口口口口 |④---|
45
口口口口 |①---|
口口口口 |②---|
口口口口 |③---|
③④②① |④---|
46
口口口口 |①---|
口④③口 |②---|
口②①口 |③---|
口口口口 |④---|
47
口①①口 |①---|
②口口② |----|
口口口口 |②---|
口口口口 |----|
48
口口口口 |①---|
口口口口 |----|
口①①口 |②---|
②口口② |----|
49
口口口口 |①---|
②口口② |----|
①口口① |②---|
口口口口 |----|
50
口口口口 |①---|
口口口口 |②---|
口④③口 |③---|
口②①口 |④---|
51
③④②① |①---|
口口口口 |②---|
口口口口 |③---|
口口口口 |④---|
52
口口口口 |①---|
③④②① |②---|
口口口口 |③---|
口口口口 |④---|
53
口口口口 |①---|
口口口口 |②---|
口口口口 |③---|
③④②① |④---|
54
口口口口 |①---|
口④③口 |②---|
口②①口 |③---|
口口口口 |④---|
55
口①①口 |①---|
②口口② |----|
口口口口 |②---|
口口口口 |----|
56
口口口口 |①---|
口口口口 |----|
口①①口 |②---|
②口口② |----|
57
口口口口 |①---|
②口口② |----|
①口口① |②---|
口口口口 |----|
58
口①①口 |①--②|
口②②口 |--③-|
口③③口 |④---|
口④④口 |----|
59
口②①口 |①--②|
④口口③ |--③-|
口⑥⑤口 |-④--|
口口口口 |⑤-⑥-|
60
口口口口 |①--②|
口⑥⑤口 |--③-|
④口口③ |-④--|
口②①口 |⑤-⑥-|
61
⑤口口① |①-②-|
⑥口口② |③-④-|
⑦口口③ |⑤-⑥-|
⑧口口④ |⑦-⑧-|
62
口⑧⑦口 |①-②-|
口⑥⑤口 |③-④-|
口④③口 |⑤-⑥-|
口②①口 |⑦-⑧-|
63
②口口① |①--②|
口④③口 |--③-|
⑥口口⑤ |-④--|
口口口口 |⑤-⑥-|
64
口口口口 |①--②|
⑥口口⑤ |--③-|
口④③口 |-④--|
②口口① |⑤-⑥-|
65
口⑧①口 |①-②-|
口⑦②口 |③-④-|
口⑥③口 |⑤-⑥-|
口⑤④口 |⑦-⑧-|
66
②口口① |①-②-|
④口口③ |③-④-|
⑥口口⑤ |⑤-⑥-|
⑧口口⑦ |⑦-⑧-|
67
口⑤①口 |①-②-|
口⑥②口 |--③-|
口③口口 |④---|
口④口口 |⑤-⑥-|
68
口口口口 |--①-|
口口口口 |②---|
口口①口 |----|
口口②口 |----|


不确定度: 0

最終更新:2012年11月07日 23:39