Water Horizon
青龍

ADVANCED

Level: 9
BPM: 191
Notes: 671

1
口口口口 |----|
口口口口 |----|
口口口口 |----|
口口口口 |----|
2
口①口① |①---|
口口口口 |----|
口①口① |----|
口口口口 |----|
3
口口口口 |----|
口口口口 |----|
口口口口 |----|
口口口口 |----|
4
①①②② |①---|
口口口口 |②---|
①口口② |----|
口口口口 |----|
5
口口口口 |----|
口②①口 |----|
口口口口 |①---|
①口口② |②---|
6
口①口① |①---|
口口口口 |----|
口①口① |----|
口口口口 |----|
7
口口口口 |----|
口口口口 |----|
口口口口 |----|
口口口口 |----|
8
⑤口口⑥ |①-②-|
①口口② |③-④-|
⑦口口⑧ |⑤-⑥-|
③口口④ |⑦-⑧-|
9
⑤口口⑥ |①-②-|
①口口② |③-④-|
⑦口口⑧ |⑤-⑥-|
③口口④ |⑦-⑧-|
10
口口①口 |①-②-|
口②口⑤ |③-④-|
⑥口③⑦ |⑤-⑥-|
⑧④口口 |⑦-⑧-|
11
口⑧⑦口 |①-②-|
口②①口 |③-④-|
口⑥⑤口 |⑤-⑥-|
口④③口 |⑦-⑧-|
12
⑤⑬⑫④ |①②③④|
⑥⑭⑪③ |⑤⑥⑦⑧|
⑦⑮⑩② |⑨⑩⑪⑫|
⑧⑯⑨① |⑬⑭⑮⑯|
13
口口口口 |----|
口②①口 |----|
口口口口 |①---|
①口口② |②---|
14
⑤口④② |①-②-|
口⑥口口 |③-④-|
①③⑦口 |⑤-⑥-|
口口口⑧ |⑦-⑧-|
15
口⑥口口 |①-②-|
⑥口④② |③-④-|
口口口⑤ |⑤---|
①③⑤口 |⑥---|
16
⑤口④② |①-②-|
口⑥口口 |③-④-|
①③⑦口 |⑤-⑥-|
口口口⑧ |⑦-⑧-|
17
口⑥口口 |①-②-|
⑥口④② |③-④-|
口口口⑤ |⑤---|
①③⑤口 |⑥---|
18
⑤口④② |①-②-|
口⑥口口 |③-④-|
①③⑦口 |⑤-⑥-|
口口口⑧ |⑦-⑧-|
19
口⑥口口 |①-②-|
⑥口④② |③-④-|
口口口⑤ |⑤---|
①③⑤口 |⑥---|
20
⑤口④② |①-②-|
口⑥口口 |③-④-|
①③⑦口 |⑤-⑥-|
口口口⑧ |⑦-⑧-|
21
口⑥口口 |①-②-|
⑥口④② |③-④-|
口口口⑤ |⑤---|
①③⑤口 |⑥---|
22
⑤口④② |①-②-|
口⑥口口 |③-④-|
①③⑦口 |⑤-⑥-|
口口口⑧ |⑦-⑧-|
23
⑥口口口 |①-②-|
⑤口④② |③-④-|
口口口⑧ |⑤-⑥-|
①③口⑦ |⑦-⑧-|
24
⑤口④② |①-②-|
口⑥口口 |③-④-|
①③⑦口 |⑤-⑥-|
口口口⑧ |⑦-⑧-|
25
口⑥口口 |①-②-|
⑤⑦④② |③-④-|
口口⑧口 |⑤-⑥-|
①③口口 |⑦-⑧-|
26
⑤口④② |①-②-|
口⑥口口 |③-④-|
①③⑦口 |⑤-⑥-|
口口口⑧ |⑦-⑧-|
27
⑥口口口 |①-②-|
⑤口④② |③-④-|
口口口⑧ |⑤-⑥-|
①③口⑦ |⑦-⑧-|
28
⑤口④② |①-②-|
口⑥口口 |③-④-|
①③⑦口 |⑤-⑥-|
口口口⑧ |⑦-⑧-|
29
口⑥口口 |①-②-|
⑥口④② |③-④-|
口口口⑤ |⑤---|
①③⑤口 |⑥---|
30
口口⑤④ |①-②-|
口③⑧口 |③④⑤-|
②⑥①⑦ |⑥⑦⑧-|
⑩口⑨口 |⑨-⑩-|
31
口口口口 |①-②-|
③口口① |③-④-|
口④②口 |⑤---|
⑥⑤口⑦ |⑥-⑦-|
32
口口⑤④ |①-②-|
口③⑧口 |③④⑤-|
②⑥①⑦ |⑥⑦⑧-|
⑩口⑨口 |⑨-⑩-|
33
口④③口 |①-②-|
①口口② |③-④-|
口口口口
口口口口

⑦口口口
⑧口口口
口口口⑥ |⑤-⑥-|
口口口⑤ |⑦-⑧-|
34
口口⑤④ |①-②-|
口③⑧口 |③④⑤-|
②⑥①⑦ |⑥⑦⑧-|
⑩口⑨口 |⑨-⑩-|
35
口口口口 |①-②-|
③口口① |③-④-|
口④②口 |⑤---|
⑥⑤口⑦ |⑥-⑦-|
36
口口⑤④ |①-②-|
口③⑧口 |③④⑤-|
②⑥①⑦ |⑥⑦⑧-|
⑩口⑨口 |⑨-⑩-|
37
口④③口 |①-②-|
①口口② |③-④-|
口口口口
口口口口

⑦口口口
⑧口口口
口口口⑥ |⑤-⑥-|
口口口⑤ |⑦-⑧-|
38
口口口④ |①-②-|
口③⑦口 |③-④-|
②⑤①⑥ |⑤⑥⑦-|
⑨口⑧口 |⑧-⑨-|
39
口口口口 |①-②-|
③口口① |③-④-|
口④②口 |⑤---|
⑥⑤口⑦ |⑥-⑦-|
40
口口口④ |①-②-|
口③⑦口 |③-④-|
②⑤①⑥ |⑤⑥⑦-|
⑨口⑧口 |⑧-⑨-|
41
口④③口 |①-②-|
①口口② |③-④-|
口口口口
口口口口

⑦口口口
⑧口口口
口口口⑥ |⑤-⑥-|
口口口⑤ |⑦-⑧-|
42
口口口④ |①-②-|
口③⑦口 |③-④-|
②⑤①⑥ |⑤⑥⑦-|
⑨口⑧口 |⑧-⑨-|
43
口口口口 |①-②-|
③口口① |③-④-|
口④②口 |⑤---|
⑥⑤口⑦ |⑥-⑦-|
44
口口口④ |①-②-|
口③⑦口 |③-④-|
②⑤①⑥ |⑤⑥⑦-|
⑨口⑧口 |⑧-⑨-|
45
口④③口 |①-②-|
①口口② |③-④-|
口口口口
口口口口

⑦口口口
⑧口口口
口口口⑥ |⑤-⑥-|
口口口⑤ |⑦-⑧-|
46
口口口口 |①-②-|
口口③④ |③-④-|
口①②口
口口口口

口口口口
口口口口
⑥⑦口口 |⑤---|
口⑤口口 |⑥-⑦-|
47
⑥⑤④③ |①-②-|
口①②口 |③④⑤⑥|
⑧口口⑦ |⑦-⑧-|
⑩口口⑨ |⑨-⑩-|
48
口口口口 |①-②-|
口口③④ |③-④-|
口①②口
口口口口

口口口口
口口口口
⑥⑦口口 |⑤---|
口⑤口口 |⑥-⑦-|
49
⑥⑤④③ |①-②-|
口①②口 |③④⑤⑥|
⑧口口⑦ |⑦-⑧-|
⑩口口⑨ |⑨-⑩-|
50
口⑦⑥⑤ |①-②-|
口④③口 |③-④-|
⑧②①⑨ |⑤⑥⑦-|
口口口口 |⑧-⑨-|
51
②口口⑤ |①-②-|
口③④⑥ |③-④-|
⑧口口口 |⑤-⑥-|
⑦口①口 |⑦-⑧-|
52
口⑦⑥⑤ |①-②-|
口④③口 |③-④-|
⑧②①⑨ |⑤⑥⑦-|
口口口口 |⑧-⑨-|
53
②口口⑦ |①-②-|
口③④⑥ |③-④-|
口口⑤口 |⑤-⑥-|
口口①口 |⑦---|
54
①①口口 |①---|
口口②② |----|
口口口口 |②---|
①口口口 |----|
55
口口②② |①---|
①①口口 |----|
口口口口 |②---|
口口口口 |----|
56
口口口口 |①---|
①①②② |----|
口口口口 |②---|
口口口口 |----|
57
口口口口 |①---|
口口口口 |----|
口口口口 |②---|
①①②② |----|
58
①①口口 |①---|
口口②② |----|
口口口口 |②---|
口口口口 |----|
59
口口②② |①---|
①①口口 |----|
口口口口 |②---|
口口口口 |----|
60
口口口口 |①---|
①①口口 |----|
口口②② |②---|
口口口口 |----|
61
口口口口 |①---|
口口口口 |----|
口口口口 |②---|
①①②② |----|
62
⑧⑦⑥⑤ |①-②-|
口口口口 |③-④-|
④③②① |⑤-⑥-|
口口口口 |⑦-⑧-|
63
口口口口 |--①-|
③④②① |②-③-|
口口口口 |④---|
口口口口 |----|
64
口口口口 |①-②-|
口口口口 |③-④-|
④③②① |⑤-⑥-|
⑤⑥⑧⑦ |⑦-⑧-|
65
口⑦⑥⑤ |--①-|
④口口口 |②-③-|
口③②① |④-⑤-|
口口口口 |⑥-⑦-|
66
⑧⑦⑥⑤ |①-②-|
口口口口 |③-④-|
④③②① |⑤-⑥-|
口口口口 |⑦-⑧-|
67
⑦⑥⑤④ |--①-|
口③②① |②-③-|
口口口口 |④-⑤-|
口口口口 |⑥-⑦-|
68
口口⑥口 |①---|
④⑤③② |②-③-|
①口口口 |--④-|
口口口口 |⑤-⑥-|
69
③④口① |①-②-|
口口口② |③-④-|
口口口口 |----|
口口口口 |----|
70
⑧⑦⑥⑤ |①-②-|
口口口口 |③-④-|
④③②① |⑤-⑥-|
口口口口 |⑦-⑧-|
71
口口口口 |--①-|
③④②① |②-③-|
口口口口 |④---|
口口口口 |----|
72
口口口口 |①-②-|
口口口口 |③-④-|
④③②① |⑤-⑥-|
⑤⑥⑧⑦ |⑦-⑧-|
73
口⑦⑥⑤ |--①-|
④口口口 |②-③-|
口③②① |④-⑤-|
口口口口 |⑥-⑦-|
74
⑧⑦⑥⑤ |①-②-|
口口口口 |③-④-|
④③②① |⑤-⑥-|
口口口口 |⑦-⑧-|
75
⑦⑥⑤④ |--①-|
口③②① |②-③-|
口口口口 |④-⑤-|
口口口口 |⑥-⑦-|
76
口口⑥口 |①---|
④⑤③② |②-③-|
①口口口 |--④-|
口口口口 |⑤-⑥-|
77
③④口① |①-②-|
口口口② |③-④-|
口口口口 |----|
口口口口 |----|
78
③口口② |①---|
③①①口 |----|
口①①口 |②---|
③口口② |③---|
79
口口①⑤ |①-②-|
⑥①⑦③ |③-④-|
②⑧口口 |⑤-⑥-|
口④口口 |⑦-⑧-|
80
②口①口 |--①-|
口②口① |②-③-|
口口③③ |④---|
④④口口 |----|
81
口口①口 |①-②-|
⑤口⑦③ |③-④-|
②⑥⑧口 |⑤-⑥-|
口④口口 |⑦-⑧-|
82
口口口① |--①-|
口③⑤口 |②-③-|
②⑥口④ |④-⑤-|
⑦口口口 |⑥-⑦-|
83
口口①⑤ |①-②-|
⑥口⑦③ |③-④-|
②⑧口口 |⑤-⑥-|
口④口口 |⑦-⑧-|
84
②口①口 |--①-|
④②⑤① |②-③-|
口口③口 |④-⑤-|
⑥口⑦③ |⑥-⑦-|
85
口口口⑥ |①---|
口④⑤② |②-③-|
①口③口 |--④-|
口口口口 |⑤-⑥-|
86
口口口口 |①-②-|
口口口④ |③-④-|
②①口口 |----|
③口口口 |----|
87
口口口口 |①---|
口④⑤② |②-③-|
①⑥③口 |--④-|
口口口口 |⑤-⑥-|
88
⑦⑥⑤④ |--①-|
口口口口 |②-③-|
口口口口 |④-⑤-|
①②③口 |⑥-⑦-|
89
口口⑥口 |①---|
口④⑤② |②-③-|
①口③口 |--④-|
口口口口 |⑤-⑥-|
90
③口口① |①-②-|
④口口② |③-④-|
⑦口口⑤ |⑤-⑥-|
⑧口口⑥ |⑦-⑧-|
91
口口口口 |①---|
口④⑤② |②-③-|
口口③⑥ |--④-|
口①口口 |⑤-⑥-|
92
③②①⑨ |①②③-|
口口⑧口 |④-⑤-|
④⑦⑤口 |⑥-⑦-|
⑥口口口 |⑧-⑨-|
93
②①口口 |①-②-|
④③口口 |③-④-|
口⑦口口 |--⑤-|
⑥⑤口口 |⑥-⑦-|
94
口口②② |--①-|
口口③③ |②-③-|
⑤口④④ |④---|
⑤⑤①① |⑤---|
95
①①口口 |①---|
①①口口 |----|
口口口口 |----|
口口口口 |----|


不確定度: 0

最終更新:2013年02月14日 21:33