紅蓮の焔
劇団レコードfeat.浅葉リオ

EXTREME

Level: 9
BPM: 155
Notes: 600

1
口口口口 |----|
口口口口 |----|
口口口口 |----|
口口口口 |----|
2
口③口口 |①---|
④口④② |②---|
②④口④ |③---|
口口③① |④---|
3
①口②① |①---|
口③口口 |--②③|
口口口口 |④---|
⑤口④⑤ |⑤---|
4
①口口① |①---|
口②口口 |--②③|
口口③口 |④---|
⑤④⑤口 |⑤---|
5
②①②① |①---|
口口口口 |--②-|
口口口口
口口口口

口口口⑤
口⑥口口
④口口口 |③-④-|
口口③口 |⑤-⑥-|
6
口①口口 |①---|
口⑦①② |--②③|
③口⑥口 |④-⑤-|
口⑤口④ |⑥-⑦-|
7
②①口① |①---|
口口口口 |--②-|
口口口口
口口口口

口口口⑤
⑥口⑤③
口⑥口口 |③-④-|
④口口口 |⑤-⑥-|
8
③口口口 |①---|
口口口④ |--②③|
⑤口②① |④---|
口口①口 |⑤---|
9
⑧①①⑦ |①-②③|
口②口⑤ |④-⑤-|
口口③口 |⑥-⑦-|
⑥④口⑨ |⑧-⑨-|
10
口①①口 |①-②③|
⑤口②口 |④-⑤-|
口③口⑥ |⑥---|
口口④口 |----|
11
④口④⑤ |--①-|
口口⑥③ |②-③-|
②口②⑦ |④-⑤-|
⑥口口① |⑥-⑦-|
12
口口口口 |①-②-|
①口⑤② |③-④-|
⑤③③口 |⑤---|
口口①④ |----|
13
①口口口 |①-②-|
口④③④ |③-④-|
口③②③
口④③④

口⑥⑦⑥
⑤口口口
⑧口⑧口 |⑤-⑥-|
口口口口 |⑦-⑧-|
14
口⑥口口 |--①-|
⑤口⑤① |②-③-|
口口口④ |④-⑤-|
⑦②⑦③ |⑥-⑦-|
15
④口口① |--①-|
口②口⑥ |②-③-|
⑦⑤⑦⑤ |④-⑤-|
口口口③ |⑥-⑦-|
16
⑤①①⑤ |①-②-|
⑦③③⑦ |③-④-|
口口口口 |⑤-⑥-|
⑧④②⑥ |⑦-⑧-|
17
口⑤①⑤ |--①-|
④口口口 |②-③-|
⑦②⑦口 |④-⑤-|
口口③⑥ |⑥-⑦-|
18
口口①⑥ |--①-|
②⑤口⑤ |②-③-|
口口口③ |④-⑤-|
④⑦口⑦ |⑥-⑦-|
19
口口口口 |--①-|
口口①口 |②-③-|
②口口口
口口③口

口④口口
⑦⑤⑦⑤
口口口口 |④-⑤-|
口口口⑥ |⑥-⑦-|
20
④口④口 |①-②-|
口口口⑤ |③-④-|
口②口② |⑤---|
①口③口 |----|
21
①口口① |----|
③②②③ |①---|
③①①③ |②---|
②口口② |③---|
22
①口⑧② |①-②-|
⑤口④⑥ |③-④-|
口⑦②⑧ |⑤-⑥-|
口③⑥④ |⑦-⑧-|
23
⑧⑥口① |①-②-|
④②口⑦ |③-④-|
⑥⑧③口 |⑤-⑥-|
②④口⑤ |⑦-⑧-|
24
口⑤⑧② |①-②-|
③①④⑥ |③-④-|
口口②⑧ |⑤-⑥-|
口⑦⑥④ |⑦-⑧-|
25
②口口① |①-②-|
口④③口 |③-④-|
口②口口
④口口口

⑧⑥口口
口口口⑦
⑥口口口 |⑤-⑥-|
口口口⑤ |⑦-⑧-|
26
口口①② |①-②-|
口口①口 |③-④-|
口①口口
③①④口

口⑥口口
⑤⑤⑦口
口⑧⑤⑤ |⑤-⑥-|
口口口口 |⑦-⑧-|
27
③口①④ |①-②-|
口③口① |③-④-|
①口③口
②①口③

口⑤⑥口
⑤口⑧口
⑦口口⑤ |⑤---|
口口⑤口 |⑥-⑦-⑧-|
28
口口口口 |①---|
②口口② |②---|
口口口口
口①口口

口口口口
口口口口
口口口口 |----|
口③③口 |③---|
29
口①口口 |①-②-|
①口②口 |③---|
口③口② |----|
③口口口 |----|
30
口②⑦② |①---|
⑥⑤⑥口 |②-③-|
口④③④ |④-⑤-|
口①①口 |⑥-⑦-|
31
①口口① |①-②-|
口口⑥③ |--③④|
④口口⑦ |⑤-⑥-|
口口②⑤ |--⑦-|
32
⑤④③② |--①-|
①⑥口① |②-③-|
②口口口 |④-⑤-|
③④口⑦ |⑥-⑦-|
33
口口③⑥ |①-②-|
口④②口 |--③-|
①口③口 |④-⑤-|
口④口⑤ |--⑥-|
34
②③④⑤ |--①-|
①口⑥① |②-③-|
口口口② |④-⑤-|
⑦口④③ |⑥-⑦-|
35
口口口口 |①-②-|
口③口口 |--③-|
口口①②
口口口口

⑥口口⑤
④口口④
⑤口口⑥ |④--⑤|
口口口口 |--⑥-|
36
口③③口 |①-②-|
口口口口 |③-④-|
④口②口
口①①口

口口口口
口⑤⑤口
口口口口 |⑤-⑥-|
⑧⑦⑦⑥ |⑦-⑧-|
37
口④③口 |①-②-|
①⑥⑤① |--③-|
口④③② |④-⑤-|
口口口口 |--⑥-|
38
口②⑦② |--①-|
⑥⑤⑥① |②-③-|
口④③④ |④-⑤-|
口口口口 |⑥-⑦-|
39
①口口① |①-②-|
口口⑥③ |--③④|
④口口⑦ |⑤-⑥-|
口口②⑤ |--⑦-|
40
⑤④③② |--①-|
①⑥口① |②-③-|
②口口口 |④-⑤-|
③④口⑦ |⑥-⑦-|
41
口口③⑥ |①-②-|
口④②口 |--③-|
①口③口 |④-⑤-|
口④口⑤ |--⑥-|
42
②③④⑤ |--①-|
①口⑥① |②-③-|
口口口② |④-⑤-|
⑦口④③ |⑥-⑦-|
43
口口口口 |①-②-|
口③口口 |--③-|
口口①②
口口口口

口④口口
④口⑤口
口⑤口⑥ |④--⑤|
口口⑥口 |--⑥-|
44
①⑤口⑤ |①-②-|
口④⑥② |③-④-|
③⑦③⑦ |⑤-⑥-|
⑧口口① |⑦-⑧-|
45
①④①口 |①-②-|
⑤口⑤口 |③-④-|
口⑦⑦口 |⑤-⑥-|
⑥③②⑥ |--⑦-|
46
口口④① |--①-|
⑤②口口 |②-③-|
口口⑥③ |④-⑤-|
口⑦口口 |⑥-⑦-|
47
口口口口 |①-②-|
口口口② |--③-|
口③口③
口口口①

口④口④
⑤口口口
口口口口 |--④-|
口⑥口⑥ |⑤-⑥-|
48
口口④口 |①-②-|
口③②口 |--③-|
①口③口 |--④-|
口口⑤口 |--⑤-|
49
口③④② |①-②-|
口⑤⑥口 |③④⑤⑥|
口口口口
①口口口

口口口口
⑨口口⑩
⑪⑦⑧⑫ |⑦⑧⑨⑩|
⑬口口⑭ |⑪⑫⑬⑭|
50
口①②⑩ |①②③④|
⑨③④口 |⑤⑥⑦⑧|
口⑤⑥口 |⑨-⑩-|
口⑦⑧⑪ |--⑪-|
51
口②⑤口 |①-②-|
④⑥②口 |--③-|
⑦⑤③口 |④-⑤-|
①③⑧口 |⑥⑦⑧-|
52
口②口口 |①-②-|
口口口② |--③-|
口③口③
①口口口

口口口⑤
④口口口
口口口口 |④-⑤-|
⑥口口⑦ |⑥-⑦-|
53
口口②⑧ |①②③④|
口⑤口④ |⑤⑥⑦⑧|
③⑦口⑥
口①口口

⑨口⑯口
⑬口⑭口
口口⑫口 |⑨⑩⑪⑫|
⑪⑮⑩口 |⑬⑭⑮⑯|
54
口⑤⑩④ |①②③④|
⑨口口口 |⑤⑥⑦⑧|
①③⑧② |⑨-⑩-|
⑦口⑪⑥ |--⑪-|
55
①⑤口⑦ |①-②③|
口⑨口② |④-⑤-|
③⑥口⑤ |⑥-⑦-|
⑧④口⑨ |⑧-⑨-|
56
①②口⑥ |①-②③|
③口口② |④-⑤-|
⑤④⑧⑤ |--⑥-|
⑦口口⑧ |⑦-⑧-|
57
①⑤口口 |①②③④|
口②⑥口 |⑤⑥⑦⑧|
③⑦口口
口④⑧口

⑬口⑨⑭
口口口⑩
⑮口⑪⑯ |⑨⑩⑪⑫|
口口口⑫ |⑬⑭⑮⑯|
58
口口口口 |①-②-|
①⑤⑦④ |③-④-|
⑧③口⑥ |⑤-⑥-|
口口②口 |⑦-⑧-|
59
口②③口 |①---|
口口⑤③ |②-③-|
口口口④ |--④-|
口口口① |--⑤-|
60
口②③口 |①---|
口①口③ |②-③-|
①口口口
口口口口

口口口口
口⑤④口
⑤口口④ |--④-|
口⑥⑥口 |⑤-⑥-|
61
④①④① |①-②-|
⑧⑧⑧⑧ |③-④-|
⑥③②⑤ |⑤-⑥-|
口⑦⑦口 |⑦-⑧-|


不確定度: 0

最終更新:2013年03月29日 20:53