Concertino in Blue
佐々木博史

EXTREME

Level: 10
BPM: 130-155
Notes: 704

BPM: 140
1
口口口口 |----|
口口口口 |----|
口口口口 |----|
口口口口 |----|
2
⑤⑧②① |①-----|
⑤⑧②① |②-③-④-|
③④⑩⑨ |⑤-⑥-⑦-|
口口⑦⑥ |⑧-⑨-⑩-|
3
⑦⑩①① |①-②-③-|
⑦⑩④④ |④-⑤-⑥-|
②⑤⑪⑧ |⑦-⑧-⑨-|
③⑥⑫⑨ |⑩-⑪-⑫-|
4
⑦⑩④① |①-②-③-|
⑩⑦①④ |④-⑤-⑥-|
②⑤⑪⑧ |⑦-⑧-⑨-|
⑥③⑨⑫ |⑩-⑪-⑫-|
5
⑩⑦①④ |①-②-③-|
⑦⑩④① |④-⑤-⑥-|
⑤②⑧⑪ |⑦-⑧-⑨-|
③⑥⑫⑨ |⑩-⑪-⑫-|
6
口④①口 |①-②-③-|
口口口口 |④-⑤-⑥-|
口②⑤口
③口口⑥

口口口口
口⑨⑧⑦
⑩⑪口⑫ |⑦-⑧-⑨-|
口口口口 |⑩-⑪-⑫-|

BPM: 155
7
②⑤④② |①②-③|
⑥④⑤⑥ |-④⑤-|
口⑦⑦口 |⑥-⑦-|
③①①③
8
①口口① |①---|
⑥⑤④③ |②---|
口口口口 |③④⑤⑥|
②口口②
9
④口口① |①---|
口口口③ |②---|
④②②① |③④-⑤|
口⑤⑤③
10
②口口① |----|
口②①口 |--①-|
口口③口 |②-③-|
口口口③
11
⑦口口⑥ |①-②③|
③口口② |-④⑤-|
⑦①口⑥ |⑥-⑦-|
①⑤④口
12
口②①口 |①②-③|
⑦⑧⑨⑩ |-④⑤-|
口⑥口口 |⑥---|
口④⑤③ |⑦⑧⑨⑩|
13
①口口④ |①---|
③口口口 |②---|
①②②④ |③④-⑤|
③⑤⑤口
14
口口口口 |----|
口口口口
口口口口
口口口口

BPM: 153

②口口口
口②口口 |--①-|
口③①口 |②-③-|
③口口①

BPM: 151
15
口③②① |①②③④|
④口①⑧ |-⑤⑥⑦|
口⑩⑨⑤ |-⑧⑨⑩|
口⑦⑥口
16
②⑫③⑪ |①②③④|
口④⑦口 |⑤⑥⑦⑧|
⑧口口⑤ |⑨⑩⑪⑫|
⑥⑩⑨①
17
口口口口 |①---|
口口口口 |②---|
口①①口
②口口②

BPM: 155

口口口口
⑥⑤④③
口口口口 |③④⑤⑥|
口口口口
18
⑥④口① |①-②③|
口口口口 |④-⑤-|
口口③① |⑥-⑦-|
⑦②口⑤
19
口④口③ |①-②-|
⑧②⑤口 |③-④⑤|
口⑥口① |⑥⑦-⑧|
口口⑦口
20
口口④口 |-①②-|
口⑤口口 |③-④-|
口口②① |⑤-⑥-|
③口口⑥
21
口口口口 |①-②③|
口口②口 |④-⑤⑥|
①③口⑥
⑤口④口

口⑦⑩⑧
⑪⑫⑬⑭
口口口口 |⑦⑧⑨⑩|
口⑨口口 |⑪⑫⑬⑭|
22
①口口⑤ |①-②③|
口口口口 |④-⑤-|
①③口② |⑥-⑦-|
⑥口④⑦
23
口①口口 |①-②-|
口口口口
口口②口
口口口口

BPM: 153

口口⑥口
③口口口 |③④⑤-|
口⑦口④ |⑥-⑦-|
口⑤口口

BPM: 151
24
①口口口 |①②③④|
⑧口口② |-⑤⑥⑦|
③⑨⑥⑤ |-⑧⑨⑩|
口⑦④⑩
25
⑤①②口 |-①②③|
口⑨⑩④ |④⑤⑥⑦|
③⑪口⑥ |⑧⑨⑩⑪|
口⑦⑧口
26
口②②③ |①---|
口口口口 |②---|
口④口口 |③-④-|
①口口①

BPM: 155
27
②⑤⑥口 |①--②|
口口④③ |-③④-|
口口口口 |⑤-⑥-|
口口①口
28
口口口⑥ |①-②③|
口口口口 |-④⑤-|
①口口⑦ |⑥-⑦-|
④⑤③②
29
②⑤④口 |①-②-|
口①①口 |-③④⑤|
口③⑥口 |⑥⑦--|
⑦口口口
30
口口口⑦ |①-②-|
②口④① |③-④-|
口⑤口口 |⑤-⑥⑦|
口口⑥③
31
⑤口⑫口 |①②③④|
口①⑧④ |⑤⑥⑦⑧|
③⑨②口 |⑨⑩⑪⑫|
⑪⑦⑩⑥
32
⑤口口口 |①②③-|
④①口口 |④-⑤-|
③口②⑥ |⑥-⑦-|
口⑦口口
33
口⑥⑨⑤ |①②③④|
④口①口 |⑤⑥⑦⑧|
⑩⑧⑦口 |⑨⑩⑪⑫|
②⑫⑪③
34
⑥口口⑦ |①②③④|
口②⑤① |⑤-⑥-|
口口口③ |--⑦-|
④口口口
35
⑩口⑨口 |①②③④|
⑥口⑤口 |⑤⑥⑦⑧|
②⑧⑦⑪ |⑨⑩⑪⑫|
⑫④①③
36
口⑤口口 |①②③④|
⑥②⑦① |--⑤-|
④口口口 |⑥-⑦-|
口口③口
37
①⑥⑥① |①-②③|
口口口口 |④⑤⑥-|
⑧③②⑦ |⑦⑧⑨⑩|
⑩⑤④⑨
38
①口口① |①-②③|
⑥⑧⑦⑥ |④⑤⑥-|
⑩③②⑨ |⑦⑧⑨⑩|
口⑤④口
39
口①①口 |①---|
口口⑤④ |--②③|
口口口口 |④⑤--|
②③口口
40
口口口口 |①---|
口口口口 |--②-|
口①①口 |-③--|
②③③②
41
⑥口口① |①②③④|
②③④⑤ |⑤⑥⑦⑧|
⑩⑨⑧⑦ |⑨⑩--|
口口口口
42
⑤⑤①① |①--②|
口⑧⑦⑥ |③④⑤-|
口口口口 |-⑥⑦⑧|
②③④口
43
口⑧⑥② |①②③④|
④口口⑩ |⑤⑥⑦⑧|
口⑦⑤① |⑨⑩--|
③口口⑨
44
口②②口 |①---|
口①①口 |--②-|
口②②口 |----|
口口口口
45
口口⑧⑦ |①-②③|
②③④⑤ |④⑤⑥-|
口口口口 |⑦-⑧-|
①⑥口①
46
口①口口 |①-②③|
⑦⑧口口 |④⑤⑥-|
⑤④③② |⑦-⑧-|
口口口⑥
47
⑥②③⑥ |①-②③|
⑧口①⑦ |④⑤⑥-|
口口口口 |⑦-⑧-|
⑦④⑤⑧
48
口口口口 |①②③④|
口①①口
②③④口
口口口口

BPM: 153.2-134.7

⑫⑧⑨口
⑩口口⑪ |⑤⑥⑦⑧|
口口口⑤ |⑨⑩⑪⑫|
口⑥⑦口

BPM: 155
49
口⑨口① |①②③④|
⑩③②⑪ |⑤⑥⑦⑧|
④⑦⑫⑤ |⑨⑩⑪⑫|
⑧口⑥口
50
口口③② |①--②|
④口口口 |--③-|
口口口口 |-④--|
④①③②
51
①口⑨口 |①②③④|
⑪②③⑩ |⑤⑥⑦⑧|
⑤⑫⑦④ |⑨⑩⑪⑫|
口⑥口⑧
52
②③⑤口 |①-②-|
⑥口口⑤ |-③---④--|
口口④口 |⑤-⑥-|
②③①④
53
口⑨口① |①②③④|
⑩③②⑪ |⑤⑥⑦⑧|
④⑦⑫⑤ |⑨⑩⑪⑫|
⑧口⑥口
54
口⑤③② |①----②--|
⑤口口口 |-③--④-|
口④口⑥ |⑤-⑥-|
④①③②
55
⑤口⑦⑦ |①-②-③-|
口⑥①① |④-⑤-⑥-|
②⑧口口 |⑦-⑧-⑨-|
⑨③④④
56
⑤②口口 |①-②-③-|
③⑧④④ |④-⑤-⑥-|
⑥口①① |⑦-⑧-⑨-|
口⑨⑦⑦
57
⑤②①① |①-②-③-|
⑧口⑦⑦ |④-⑤-⑥-|
口⑥④④ |⑦-⑧-⑨-|
③⑨口口
58
⑤②④④ |①-②-③-|
口⑧⑦⑦ |④-⑤-⑥-|
③⑥口口 |⑦-⑧-⑨-|
⑨口①①
59
口口口口 |①---|
口口口口 |----|
口口口口 |----|
口口①①
60
口口口口 |----|
口口口口 |----|
口口口口 |----|
口口口口
61
口⑤⑤口 |①②③④|
口口口口 |⑤---|
①口口② |----|
③口口④
62
②⑤④② |①②-③|
⑥④⑤⑥ |-④⑤-|
口⑦⑦口 |⑥-⑦-|
③①①③
63
①口口① |①---|
⑥⑤④③ |②---|
口口口口 |③④⑤⑥|
②口口②
64
④口口① |①---|
口口口③ |②---|
④②②① |③④-⑤|
口⑤⑤③
65
口④③口 |-①②③|
口⑥⑤⑨ |④⑤⑥⑦|
⑩⑧⑦① |⑧⑨-⑩|
②口口口
66
口口口口 |-①②-|
口口④⑥ |③-④-|
口口口口 |⑤-⑥-|
③⑤②①
67
①⑤③④ |①-②③|
⑪⑫⑬⑭ |④-⑤⑥|
②口⑩口 |⑦⑧⑨⑩|
⑨⑦⑥⑧ |⑪⑫⑬⑭|
68
①⑦口⑤ |①-②③|
口口口口 |④-⑤-|
①③口② |⑥-⑦-|
⑥口④口

BPM: 155.6-124.7
69
⑥口①口 |①-②-|
②⑥口口 |③④⑤-|
口⑦⑤③ |⑥-⑦-|
⑦④口⑤

BPM: 121.9
70
口③②① |①②③④|
④口①⑧ |-⑤⑥⑦|
口⑩⑨⑤ |-⑧⑨⑩|
口⑦⑥口
71
②⑫③⑪ |①②③④|
口④⑦口 |⑤⑥⑦⑧|
⑧口口⑤ |⑨⑩⑪⑫|
⑥⑩⑨①

BPM: 112
72
口口口口 |①---|
口口口口 |②---|
口①①口
②口口②

BPM: 103
口③③口
口④口口
口口口口 |③-④-|
口口口口
73
口口口口 |①---|
口口口口 |----|
口口口口
口①①口

BPM: 117
口口口口
口口口口
口口口口 |----|
口口口口
74
③口口② |①----②--|
⑤口口⑥ |--③------④--|
口口口口 |--------⑤------------⑥--|
①口口④
75
③口口② |-----①--|
口口口口 |--②---|
口口口口 |-③------|
①口口口
76
口口①口 |①②③---|
口②口口 |----|
口口③口 |---④|
口口口④
77
②③④⑤ |-①--|
口口口口 |-----②③④|
口口口口 |⑤-------|
口①口口


不確定度: 0

最終更新:2013年04月29日 16:54