From Noon Till Dawn feat.Tabu Zombie & Kunikazu Tanaka
ストレイテナー

EXTREME

Level: 9
BPM: 184
Notes: 497

全程BPM在184附近飄忽不定
1
口口口口 |----|
口口口口 |----|
口口口口 |----|
口口口口 |----|
2
口口①口 |①---|
①①①① |----|
口口①口 |----|
口口口口 |----|
3
口口口口 |①---|
②口②口 |----|
①口①口 |②---|
口①口口 |----|
4
①①①口 |①---|
口口口口 |----|
口口口口 |----|
口口口口 |----|
5
口口口口 |①---|
口口口口 |----|
口②②② |②---|
口①①① |----|
6
口口口口 |①---|
口口①口 |----|
口口口口 |----|
口口口口 |----|
7
①口②口 |①---|
口②口口 |----|
②口口口 |②---|
口口口口 |----|
8
口口口口 |①---|
口口口口 |----|
口口①口 |----|
口口口① |----|
9
口口②② |①---|
口口②② |----|
口①口口 |②---|
①口口口 |----|
10
口口口口 |①-②-|
②④口口 |③-④-|
①③①口
口口口口

口口口口
口口⑤⑥
⑧口口⑦ |⑤-⑥-|
口口口口 |⑦-⑧-|
11
口③口⑤ |①-②-|
口④口⑥ |③-④-|
口口①⑦ |⑤-⑥-|
口口②⑧ |⑦-⑧-|
12
口口口口 |①-②-|
①③①口 |③-④-|
②④口口
口口口口

口口口口
口口⑧⑥
口口⑤⑦ |⑤-⑥-|
口口口口 |⑦-⑧-|
13
口③口⑤ |①-②-|
口④口⑥ |③-④-|
口口口⑦ |⑤-⑥-|
口①②⑧ |⑦-⑧-|
14
口口口口 |①-②-|
①③①口 |③-④-|
②④口口
口口口口

口口口口
口口⑧⑥
口口⑤⑦ |⑤-⑥-|
口口口口 |⑦-⑧-|
15
口③口⑤ |①-②-|
口④口⑥ |③-④-|
口口口⑦ |⑤-⑥-|
口①②⑧ |⑦-⑧-|
16
口口口口 |①-②-|
①③①口 |③-④-|
②④口口
口口口口

口口口口
口口⑧⑥
口口⑤⑦ |⑤-⑥-|
口口口口 |⑦-⑧-|
17
口③口⑤ |①-②-|
口④口⑥ |③-④-|
口口口⑦ |⑤-⑥-|
口①②⑧ |⑦-⑧-|
18
口口口口 |①---|
①口口④ |②-③-|
②③⑥⑤ |④-⑤-|
口④①口 |--⑥-|
19
③口口口 |①-②-|
口口③口 |③-④-|
口口口口
口④②①

口口⑥口
口⑤口⑤
口口⑦口 |⑤-⑥-|
⑦口口⑧ |⑦-⑧-|
20
口口口口 |①---|
①口口④ |②-③-|
②③⑥⑤ |④-⑤-|
口④①口 |--⑥-|
21
③口⑧口 |①-②-|
⑥⑤③⑤ |③-④-|
口④⑦口 |⑤-⑥-|
⑦口②① |⑦-⑧-|
22
③口口③ |①---|
④口口④ |②-③-|
②口⑤② |--④-|
口①口① |--⑤-|
23
③口口口 |①-②-|
口口③口 |③-④-|
口口口口
口④②①

口口⑥口
口⑤口⑤
口口⑦口 |⑤-⑥-|
⑦口口⑧ |⑦-⑧-|
24
口口口口 |①---|
①口口② |--②-|
口①口口 |----|
口口口口 |----|
25
⑤口口④ |--①-|
③口②口 |②-③-|
①③口⑥ |④-⑤-|
口①⑥口 |⑥---|
26
口②口口 |①---|
口③②口 |②-③-|
口②口口
①口口①

⑤口口口
口口口④
⑤口口⑥ |④---|
口口口⑦ |⑤-⑥⑦|
27
口口口口 |①-②③|
口④⑤口 |④-⑤-|
口口①口
③②口口

⑦⑦口口
口口口⑧
口⑥⑨口 |-⑥⑦-|
口口口口 |⑧-⑨-|
28
④⑤⑤④ |--①-|
⑥③③⑥ |②-③-|
口口口口 |--④-|
②①①② |⑤-⑥-|
29
④⑤⑤④ |--①-|
⑥口口⑥ |②-③-|
①口口① |--④-|
③②②③ |⑤-⑥-|
30
⑤口口④ |----|
口⑥①口 |①-②-|
③①②④ |③---|
口口①口 |④-⑤⑥|
31
口口①口 |①-②-|
口⑦口口 |③-④-|
口④③口 |⑤-⑥-|
⑤②⑥⑥ |--⑦-|
32
②①①② |--①-|
⑥口口⑥ |②-③-|
口③③口 |--④-|
④⑤⑤④ |⑤-⑥-|
33
③②②③ |--①-|
⑥口口⑥ |②-③-|
①口口① |--④-|
④⑤⑤④ |⑤-⑥-|
34
口⑤④① |----|
口口①口 |①-②-|
口③口② |③--④|
口⑥口口 |⑤-⑥-|
35
④⑥口⑥ |①②-③|
口⑤③④ |--④-|
①口口口 |⑤-⑥-|
⑦口⑦② |⑦---|
36
口口口⑤ |----|
②口③口 |①-②-|
口口①口 |③--④|
口④口① |--⑤-|
37
⑨②⑨口 |①②③④|
口⑤口① |⑤-⑥-|
⑥④⑦⑥ |⑦-⑧-|
口⑧③⑧ |⑨---|
38
⑤③口③ |----|
口①口① |①-②-|
口③②③ |③---|
④口④口 |④-⑤-|
39
⑦⑤口⑤ |①-②-|
①③口③ |--③-|
②口④口 |④-⑤-|
⑥口⑥口 |⑥-⑦-|
40
口口口口 |①-②-|
①口口口 |③---|
②口口口 |----|
口口口③ |----|
41
⑤口④口 |--①-|
③口②⑥ |②-③-|
①③口口 |④-⑤-|
口①⑦⑦ |⑥-⑦-|
42
④口②② |----|
口①③口 |①-②-|
口③①口 |----|
②口④④ |③-④-|
43
④口②② |----|
口①③口 |①-②-|
口③①口 |----|
②口④④ |③-④-|
44
口口②② |--①-|
①口口口 |②---|
口口口① |----|
②②口口 |----|
45
⑤口④口 |--①-|
③口②⑥ |②-③-|
①③口口 |④-⑤-|
口①⑦⑦ |⑥-⑦-|
46
④口②② |----|
口①③口 |①-②-|
口③①口 |----|
②口④④ |③-④-|
47
口⑥口② |----|
④①⑤③ |①-②-|
③⑤①④ |③-④-|
②口⑥口 |⑤-⑥-|
48
①口口② |--①-|
口②口口 |②---|
口口②口 |----|
②口口① |----|
49
⑤口⑥④ |--①-|
③口②口 |②-③-|
①③口⑦ |④-⑤-|
口①⑦口 |⑥-⑦-|
50
口①③② |----|
②③①④ |①-②-|
④口口口 |----|
②口口④ |③-④-|
51
⑤①⑤② |----|
②⑥①口 |①-②-|
口口口③ |③-④-|
②口④口 |⑤-⑥-|
52
口口口口 |①-②-|
③口口③ |③---|
①口①口 |----|
口口口② |----|
53
⑤口⑥④ |--①-|
③口②口 |②-③-|
①③口⑦ |④-⑤-|
口①⑦口 |⑥-⑦-|
54
口①③② |----|
②③①④ |①-②-|
④口口口 |----|
②口口④ |③-④-|
55
④①④② |----|
②⑤①口 |①-②-|
口口口③ |--③-|
②口口口 |④-⑤-|
56
口口口口 |①-②-|
③口口③ |③-④-|
①④①口 |⑤---|
⑤口⑤② |----|
57
④口口⑧ |①-②-|
③口口⑦ |③-④-|
②⑤①⑥ |⑤-⑥-|
口口口口 |⑦-⑧-|
58
④⑦⑥⑦ |①-②-|
③⑤⑤口 |③-④-|
②口①口 |⑤-⑥-|
口①口① |⑦---|
59
口口口口 |①-②-|
②④口口 |③-④-|
①③①口
口口口口

口口口口
口口⑤⑥
⑧口口⑦ |⑤-⑥-|
口口口口 |⑦-⑧-|
60
口③口⑤ |①-②-|
口④口⑥ |③-④-|
口口①⑦ |⑤-⑥-|
口口②⑧ |⑦-⑧-|


不確定度: 0

最終更新:2013年12月19日 00:12