恋閃繚乱
2B-Waves

EXTREME

Level: 8
BPM: 142
Notes: 590

1
口口口口 |----|
口口口口 |----|
口口口口 |----|
口口口口 |----|
2
①②口口 |----|
③④⑤⑥ |--①②|
⑦⑧口口 |③④⑤⑥|
⑨⑩口口 |⑦⑧⑨⑩|
3
口②⑦⑦ |--①-|
①口③③ |-②③-|
⑦④⑤⑤ |④-⑤⑥|
⑥口①① |--⑦-|
4
口②⑦⑦ |--①-|
①口③③ |-②③-|
⑦④⑤⑤ |④-⑤⑥|
⑥口①① |--⑦-|
5
口④⑦⑦ |--①-|
②口③③ |-②③-|
口⑥⑤⑤ |④-⑤⑥|
⑦口①① |--⑦-|
6
口④口③ |--①-|
⑥①⑤口 |-②--|
②⑧口⑦ |③④⑤⑥|
⑩口⑨口 |⑦⑧⑨⑩|
7
⑦⑦②口 |--①-|
③③口① |-②③-|
⑤⑤④⑦ |④-⑤⑥|
口口口⑥ |--⑦-|
8
⑦⑦②口 |--①-|
③③口① |-②③-|
⑤⑤④⑦ |④-⑤⑥|
①①口⑥ |--⑦-|
9
⑦⑦④口 |--①-|
③③口② |-②③-|
⑤⑤⑥口 |④-⑤⑥|
①①口⑦ |--⑦-|
10
③口④口 |--①-|
口⑤①⑥ |-②--|
⑦口⑧② |③④⑤⑥|
口⑨口⑩ |⑦⑧⑨⑩|
11
②④③口 |①-②-|
口⑥⑤⑦ |③-④⑤|
口口⑨口 |--⑥-|
⑧口①口 |⑦⑧⑨-|
12
口①③⑥ |①-②-|
口④⑤⑥ |③-④⑤|
⑤⑨口② |--⑥-|
⑦⑧口口 |⑦⑧-⑨|
13
②③④⑨ |①-②③|
⑥口⑧⑤ |④-⑤-|
口⑦①口 |⑥-⑦-|
口口口口 |⑧-⑨-|
14
口口⑥⑥ |①-②-|
③②④③ |③-④-|
①④②① |⑤---|
⑤⑤口口 |⑥---|
15
口②③口 |--①-|
⑥④⑤① |②-③④|
口⑧口口 |--⑤-|
口口口⑦ |⑥⑦⑧-|
16
⑥③①口 |①-②-|
⑥⑤④口 |③-④⑤|
②口⑨⑤ |--⑥-|
口口⑧⑦ |⑦⑧-⑨|
17
⑨④③② |①-②③|
⑤⑧口⑥ |④-⑤-|
口①⑦口 |⑥-⑦-|
口口口口 |⑧-⑨-|
18
口口口口 |①-②-|
③④②③ |③-④-|
①②④①
口口口口

⑥⑦⑨⑧
口口口口
⑩⑪口⑫ |⑤⑥⑦⑧|
口口⑤⑤ |⑨⑩⑪⑫|
19
口口口口 |①-②-|
口④③② |③-④-|
口口①口
口口口口

口口⑦口
⑤口口口
口⑧⑥口 |⑤-⑥-|
口口口口 |⑦-⑧-|
20
③①⑥③ |①---|
口口⑤口 |②---|
口口④口 |③-④-|
②口口② |⑤-⑥-|
21
口②口④ |①-②-|
口①⑥口 |③-④-|
⑧口口口 |⑤-⑥-|
口⑦⑤③ |⑦-⑧-|
22
口①③③ |①---|
口口④④ |②-③-|
口口口口 |④---|
口口②⑤ |⑤---|
23
⑤口口③ |①-②-|
⑥口口④ |③-④-|
②口口⑧ |⑤-⑥-|
①口口⑦ |⑦-⑧-|
24
④②①③ |①---|
口口口口 |②---|
口口口口 |③---|
③①②④ |④---|
25
③口口③ |①---|
①⑤⑤① |--②-|
口②②口 |③---|
口④④口 |④-⑤-|
26
⑦口口⑧ |①-②-|
⑤口口⑥ |③-④-|
③口口④ |⑤-⑥-|
①口口② |⑦-⑧-|
27
⑤⑥⑦⑧ |①-②-|
⑨口④⑩ |③-④-|
③口口口 |⑤⑥⑦⑧|
①口②口 |⑨-⑩-|
28
⑥⑤⑦⑧ |①-②-|
⑤口口⑦ |③-④-|
①口口③ |⑤-⑥-|
②①③④ |⑦-⑧-|
29
口③口口 |①-②-|
②口口口 |③-④-|
①口④口
口口口口

口口⑥口
⑥口口⑤
⑦⑦口口 |⑤---|
口口口口 |⑥-⑦-|
30
⑧⑦⑨⑥ |--①-|
口②⑤① |②③④-|
口口③口 |⑤-⑥⑦|
口④口口 |⑧-⑨-|
31
口口口⑤ |①-②-|
④①口口 |③④⑤-|
①口口③
口口②口

口⑦⑦口
口口口口
口⑥⑥口 |⑥--⑦|
口⑧⑧口 |--⑧-|
32
⑦⑤口⑥ |①-②-|
⑤④⑤口 |③-④-|
②⑤③口 |⑤-⑥-|
口口⑧① |⑦-⑧-|
33
口口②口 |①-②-|
口口口① |③-④-|
口口④口
口口口③

口口⑦⑦
⑤⑤口口
⑧⑧口口 |⑤-⑥-|
口口⑥口 |⑦-⑧-|
34
口口口口 |--①-|
④③②口 |②③④-|
口口口①
口口口口

口口口口
口口口口
⑦⑥⑥⑦ |⑤--⑥|
口⑤⑤口 |--⑦-|
35
③①①口 |①---|
①②口① |--②③|
④⑤⑥⑦ |④⑤⑥⑦|
⑧⑨⑩⑪ |⑧⑨⑩⑪|
36
①①口口 |--①-|
⑤②③④ |②③④-|
⑥⑥口口 |⑤-⑥-|
口⑦⑧⑨ |⑦⑧⑨-|
37
⑥②口① |①---|
⑥口口① |--②-|
口③④⑤ |③④⑤-|
口口口口 |⑥---|
38
口④口口 |--①-|
⑧口③② |②-③④|
①⑤口⑦ |-⑤⑥-|
口口⑥口 |⑦-⑧-|
39
口口①① |①---|
口③③① |②---|
②③③口 |③---|
②②口口 |----|
40
④⑤⑥⑦ |--①-|
③口口⑥ |②-③-|
②口口⑤ |④-⑤-|
①②③④ |⑥-⑦-|
41
口口口口 |①-②-|
口④口口 |③-④-|
③②③口
①口口口

口口口口
口口口口
⑤口口口 |----|
口口口口 |--⑤-|
42
口口⑦⑦ |①-②-|
⑧口⑤⑤ |③-④-|
口⑥③③ |⑤-⑥-|
②④①① |⑦-⑧-|
43
口①口口 |--①-|
口口②② |--②③|
口口③③ |④---|
口口④④ |----|
44
①⑥口③ |①-②-|
②⑦口④ |③-④-|
口⑧口⑤ |⑤-⑥-|
口口口口 |⑦-⑧-|
45
口口口口 |①---|
口口②口 |②---|
口口口口
口①口口

口口口口
口口口口
口⑥口口 |③-④-|
④⑤③口 |⑤-⑥-|
46
口④⑤⑥ |①-②-|
②③⑧⑦ |③-④-|
①口口口 |⑤-⑥-|
口口口口 |⑦-⑧-|
47
口口口口 |①---|
①口口③ |②-③-|
②口口④ |④---|
口口①口 |----|
48
口①④口 |①-②-|
口②⑤⑦ |③-④-|
③⑥口⑧ |⑤-⑥-|
口口①口 |⑦-⑧-|
49
口口①口 |①---|
口口口口 |②---|
口口②口
口①口口

口口④口
口③口口
口口口口 |③---|
口口口口 |④---|
50
①口⑤④ |①--②|
①口口④ |--③-|
⑥口口④ |④--⑤|
③口②口 |--⑥-|
51
口口④口 |①-②-|
口口口③ |③-④-|
口口②口
①①①①

口⑤口口
⑥口口口
⑦口口口 |⑤-⑥-|
口⑧口口 |⑦-⑧-|
52
④③口② |①-②③|
⑥⑤口口 |④-⑤⑥|
口口口口
口口①口

口口口口
口口口口
⑦⑧⑨⑩ |⑦⑧⑨⑩|
⑪⑫⑬⑭ |⑪⑫⑬⑭|
53
口口口口 |----|
口口口口 |----|
口口口口
口口口口
54
⑥⑤⑦⑧ |①-②-|
⑤口口⑦ |③-④-|
①口口③ |⑤-⑥-|
②①③④ |⑦-⑧-|
55
口③口口 |①-②-|
②口口口 |③-④-|
①口④口
口口口口

口口⑥口
⑥口口⑤
⑦⑦口口 |⑤---|
口口口口 |⑥-⑦-|
56
⑧⑦⑨⑥ |--①-|
口②⑤① |②③④-|
口口③口 |⑤-⑥⑦|
口④口口 |⑧-⑨-|
57
口口口⑤ |①-②-|
④①口口 |③④⑤-|
①口口③
口口②口

口⑦⑦口
口口口口
口⑥⑥口 |⑥--⑦|
口⑧⑧口 |--⑧-|
58
⑦⑤口⑥ |①-②-|
⑤④⑤口 |③-④-|
②⑤③口 |⑤-⑥-|
口口⑧① |⑦-⑧-|
59
口口②口 |①-②-|
口口口① |③-④-|
口口④口
口口口③

口口⑦⑦
⑤⑤口口
⑧⑧口口 |⑤-⑥-|
口口⑥口 |⑦-⑧-|
60
口口口口 |--①-|
④③②口 |②③④-|
口口口①
口口口口

口口口口
口口口口
⑦⑥⑥⑦ |⑤--⑥|
口⑤⑤口 |--⑦-|
61
口①①口 |①---|
①口口① |--②③|
口口口口
②③口口

口口口口
⑧⑨⑩⑪
④⑤⑥⑦ |④⑤⑥⑦|
口口口口 |⑧⑨⑩⑪|


不確定度: 0

最終更新:2013年02月26日 21:32