O JIYA
ASMAT & emi

EXTREME

Level: 9
BPM: 151
Notes: 567

1
口口口口 |----|
口口口口 |----|
口口口口 |----|
口口口口 |----|
2
口口①② |①-②③|
⑤⑤口① |④-⑤-|
③口口口 |--⑥-|
⑦口④⑥ |⑦---|
3
口口口口 |①-②③|
⑤⑤②① |④-⑤-|
③口①口
口口④口

口口口口
口口⑧口
口⑦口口 |--⑥-|
口口口⑥ |⑦-⑧-|
4
⑤口①② |①-②③|
⑤⑦⑥① |④-⑤-|
③口口口 |--⑥-|
口口④口 |⑦---|
5
口①③② |①-②-|
③口口口 |③-④-|
①口口③
口④①口

⑦⑧口口
口⑤⑥口
口⑦⑤口 |⑤-⑥-|
⑤口口⑦ |⑦-⑧-|
6
口口①② |①-②③|
⑤⑤口① |④-⑤-|
③口口口 |--⑥-|
⑦口④⑥ |⑦---|
7
口口口口 |①-②③|
⑤⑤②① |④-⑤-|
③口①口
口口④口

口口口口
口口⑧口
口⑦口口 |--⑥-|
口口口⑥ |⑦-⑧-|
8
⑤口①② |①-②③|
⑤⑦⑥① |④-⑤-|
③口口口 |--⑥-|
口口④口 |⑦---|
9
口①②④ |①---|
③口口③ |②---|
①口口② |③---|
③②①③ |④---|
10
②⑥⑥口 |①-②-|
口⑤⑤④ |③-④-|
①②①口 |⑤---|
口③④③ |--⑥-|
11
①口口③ |①-②-|
口⑤⑥口 |③-④-|
①⑦⑧③ |⑤-⑥-|
④②④② |⑦-⑧-|
12
①②口② |①-②-|
口口口③ |③-④-|
①口口口
④口④③

口口口⑥
口⑤⑤口
口口口⑥ |⑤---|
口口口口 |--⑥-|
13
⑥①口口 |①-②-|
③⑤⑤口 |③-④-|
口①②口 |⑤---|
③④②④ |⑥---|
14
口①③⑥ |①-②-|
口口口④ |③-④-|
②口⑤口 |⑤---|
③⑤①口 |--⑥-|
15
口④口口 |①-②-|
口口①口 |③-④-|
③口口②
①口③口

口口口口
⑤口口⑦
口⑥⑧口 |⑤-⑥-|
⑦口口⑤ |⑦-⑧-|
16
③口口① |①-②-|
口口口口 |③-④-|
④口口②
口①口③

口口口⑥
口⑤口口
口口口口 |⑤---|
口口⑤口 |--⑥-|
17
口④口⑥ |①-②-|
③口口② |③-④-|
口⑤①口 |⑤---|
①口⑤③ |⑥---|
18
③口口口 |①-②-|
口④口① |③-④-|
③⑤②口 |----|
口口口① |--⑤-|
19
⑤①⑤① |①-②-|
口⑥②口 |③-④-|
③⑦③⑦ |⑤-⑥-|
口④⑧口 |⑦-⑧-|
20
③口口口 |①-②-|
口④⑤① |③-④-|
③口②口 |----|
口口口① |--⑤-|
21
口①③② |①-②-|
③口口口 |③-④-|
①口口③
口④①口

⑦⑧口口
口⑤⑥口
口⑦⑤口 |⑤-⑥-|
⑤口口⑦ |⑦-⑧-|
22
口口①① |①-②-|
③③口口 |③-④-|
口口口②
口④口口

口口⑤口
口口口口
⑥口口口 |----|
口口口口 |--⑤⑥|
23
口⑥口⑥ |①-②-|
⑦④⑦② |③-④-|
口⑤⑤口 |⑤---|
③③①① |⑥-⑦-|
24
口口口口 |①---|
口口口口 |----|
口口口口 |----|
口口①① |----|
25
④①②口 |①---|
③口口③ |②---|
①口口② |③---|
③②①③ |④---|
26
口口①③ |①---|
口口口② |②-③-|
口口口口
口口①③

口口⑥口
口口⑤口
口口口④ |--④-|
口口口口 |⑤-⑥-|
27
②①口口 |①---|
口口口口 |②---|
①口口口
口②口口

口⑤口口
④口口口
口⑥口口 |③-④-|
③口口口 |⑤-⑥-|
28
口口③① |①---|
口口②口 |②-③-|
口口口口
口口③①

口口口⑥
口口口口
口口⑤④ |--④-|
口口口口 |⑤-⑥-|
29
②③口口 |①---|
口①口口 |②-③-|
①口口口
③②口口

口口口口
⑤⑥口口
口④口口 |--④-|
口口口口 |⑤-⑥-|
30
口口①④ |①-②-|
口口②③ |③-④-|
口口口口
口口①④

口口⑦口
口口口口
口口⑥⑤ |--⑤-|
口口口口 |⑥-⑦-|
31
②①口口 |①---|
口口口口 |②---|
①口口口
口②口口

口⑤口口
④口口口
口⑥口口 |③-④-|
③口口口 |⑤-⑥-|
32
口口③① |①---|
口口②口 |②-③-|
口口口口
口口③①

口口口⑥
口口口口
口口⑤④ |--④-|
口口口口 |⑤-⑥-|
33
③②口④ |①---|
①口口口 |②-③-|
口①口口 |----|
②③口口 |④---|
34
口①口口 |①-②-|
口①⑤④ |③-④⑤|
③口口口
口③口②

⑧口⑩⑨
⑥⑧口口
口⑥⑦口 |⑥-⑦-|
口口口口 |⑧-⑨⑩|
35
口口口口 |①-②-|
口口口口 |③-④-|
口③④③
①②①口

口⑦口⑦
⑤⑥⑤口
口口口口 |⑤-⑥-|
口口⑧口 |⑦-⑧-|
36
口口口口 |①-②-|
口口⑤④ |③-④⑤|
①③口口
口③口②

⑥口口⑦
⑥⑧口口
⑧口口口 |⑥-⑦-|
口口⑩⑨ |⑧-⑨⑩|
37
③②①⑥ |①-②-|
口口⑥④ |③---|
口③②① |④-⑤-|
⑤口口口 |--⑥-|
38
①①⑩⑨ |①-②-|
⑧⑥口⑦ |③-④⑤|
③口⑤④ |⑥-⑦-|
⑥③口② |⑧-⑨⑩|
39
口口口口 |①-②-|
口口口口 |③-④-|
③④③口
口①②①

⑦口⑦口
口⑤⑥⑤
口口口口 |⑤-⑥-|
口口口⑧ |⑦-⑧-|
40
⑧①口② |①-②-|
⑥⑧⑦口 |③-④⑤|
③口⑤④ |⑥-⑦-|
⑥③⑩⑨ |⑧-⑨⑩|
41
口①②③ |①-②-|
口口口口 |③---|
①②③口
口口口口

⑥口口口
④口口⑤
口⑥口口 |④-⑤-|
④口口⑤ |--⑥-|
42
口⑤⑥⑩ |①②③④|
④⑨⑨⑦ |⑤⑥⑦⑧|
③口口⑧ |⑨---|
口②①口 |⑩---|
43
②⑥⑥口 |①-②-|
口⑤⑤④ |③-④-|
①②①口 |⑤---|
口③④③ |--⑥-|
44
①口口③ |①-②-|
口⑤⑥口 |③-④-|
①⑦⑧③ |⑤-⑥-|
④②④② |⑦-⑧-|
45
①②口② |①-②-|
口口口③ |③-④-|
①口口口
④口④③

口口口⑥
口⑤⑤口
口口口⑥ |⑤---|
口口口口 |--⑥-|
46
口①口口 |①-②-|
③口口口 |③-④-|
口①②口
③④②④

口口⑥⑦
口⑫⑤⑧
口⑪⑩⑨ |⑤⑥⑦⑧|
口口口口 |⑨⑩⑪⑫|
47
①口③⑥ |①-②-|
口口口④ |③-④-|
②口⑤口 |⑤---|
③⑤①口 |--⑥-|
48
口④口口 |①-②-|
口口①口 |③-④-|
③口口②
①口③口

口口口口
⑤口口⑦
口⑥⑧口 |⑤-⑥-|
⑦口口⑤ |⑦-⑧-|
49
③口口① |①-②-|
口口口口 |③-④-|
④口口②
口①口③

口口口⑥
口⑤口口
口口口口 |⑤---|
口口⑤口 |--⑥-|
50
口④口⑥ |①-②-|
③口口② |③-④-|
口⑤①口 |⑤---|
①口⑤③ |⑥---|
51
口口②口 |①---|
①口口口 |--②-|
口口口口
口口口口

③口口口
⑤口口口
口口口口 |③---④-|
口口④口 |--⑤---|
52
口②口口 |①---|
口口口口 |②---|
口口①口 |----|
口口口口 |----|
53
口口①④ |--①-|
口⑤⑥口 |②-③-|
②口口口 |④---|
口口口③ |⑤-⑥-|
54
口①③口 |①-②-|
③口口② |③-④-|
①④口③
口口①口

⑦口口⑤
口⑤⑦口
⑧口⑥口 |⑤-⑥-|
⑤口口⑦ |⑦-⑧-|
55
口①口② |①---|
③口口口 |--②-|
⑤口口口 |③---④-|
口口④口 |--⑤---|
56
口④口口 |①---②-|
③口口① |--③---|
口口②口 |④---|
口口⑤口 |⑤---|
57
①④口口 |--①-|
口口⑤口 |②-③-|
口⑥口② |④-⑤-|
③口口⑦ |⑥-⑦-|
58
口③口③ |①---|
口①③② |②---|
①③①② |③---|
口①②口 |----|


不確定度: 0

最終更新:2013年03月29日 20:49