ETERNAL BLAZE


EXTREME

Level: 8
BPM: 105-155
Notes: 484

BPM: 105
1
口口口口 |----|
口口口口 |----|
口口口口 |----|
口口口口 |----|
2
口口⑤⑦ |①-②-|
口③⑥④ |③-④-|
①口②口 |⑤---|
口口口口 |⑥-⑦-|
3
①口口口 |①-②-|
口②口口 |③-④-|
③⑤口口 |⑤---|
⑥④⑤口 |--⑥-|
4
③口①口 |①---|
口②口④ |②-③-|
口口口口 |④---|
口口⑤口 |⑤---|
5
口④口口 |①---|
②③②口 |②---|
①④口口 |③---|
口口口口 |④---|
6
①⑥⑤① |①-②-|
口⑦④口 |③-④-|
口⑧③口 |⑤-⑥-|
口口②口 |⑦-⑧-|

BPM: 155
7
口口口口 |①--②|
口口②口 |----|
①口口① |----|
口口口口 |----|
8
口口口口 |----|
口口口口 |----|
口口口口 |----|
①②④③ |①②③④|
9
口口口② |①---|
②口口④ |②---|
①口口口 |--③-|
口③口口 |④---|
10
①口口口 |①---|
④③口口 |②-③-|
②⑤口② |--④-|
⑥口口⑤ |⑤-⑥-|
11
④口②口 |--①-|
口②⑤口 |②---|
③口口口 |③-④-|
⑥①口口 |⑤-⑥-|
12
③④④口 |①---|
①口口口 |②-③-|
②口②口 |④---|
⑤⑥⑧⑦ |⑤⑥⑦⑧|
13
口口②② |①---|
②口④④ |②---|
口①口口 |--③-|
口③口口 |④---|
14
①④口口 |①---|
⑤③口口 |②-③-|
②⑥②② |--④-|
口口⑤⑤ |⑤-⑥-|
15
④口②② |--①-|
口②⑤⑤ |②---|
③口口口 |③-④-|
⑥①口口 |⑤-⑥-|
16
③口口口 |①---|
①口口口 |②-③-|
②口②②
口口口口

口口口口
⑥⑦口口
口口口口 |--④-|
口口④⑤ |⑤-⑥⑦|
17
⑤②口口 |①--②|
口口①③ |--③-|
④口口口 |④---|
口①③口 |⑤---|
18
口口②口 |①--②|
口①⑥⑤ |--③-|
④③口口 |④---|
口口③① |--⑤⑥|
19
口口②⑤ |①--②|
③①口口 |--③-|
口口口④ |④---|
③①口口 |⑤---|
20
口口②口 |①--②|
口①口口 |--③-|
口口③④ |④---|
口③口① |----|
21
口②口④ |①-②-|
①口③⑤ |③-④⑤|
口口口口 |----|
④口①口 |----|
22
口口口口 |①-②-|
④口②口 |③-④⑤|
⑤③口①
口①口④

口口口口
口口⑥口
口口口口 |----|
口口口口 |--⑥-|
23
口③口① |①---|
②口④口 |②---|
口⑤③③ |③---|
①①口口 |④-⑤-|
24
口口③口 |①-②-|
①①口② |③---|
口口口口
口口①口

口口口口
④⑤口口
口口口口 |----|
口口口口 |--④⑤|
25
⑤②③口 |①--②|
口口①口 |--③-|
④口口口 |④---|
③①口口 |⑤---|
26
口口②口 |①--②|
口①⑥⑤ |--③-|
④③口口 |④---|
口口③① |--⑤⑥|
27
口②③⑥ |①--②|
口①口⑤ |--③-|
口口口④ |④-⑤-|
③①口口 |⑥---|
28
口口②口 |①--②|
口①口口 |--③-|
口口③口
口③口①

口口口口
口⑤口口
口口口④ |④---|
口口口口 |--⑤-|
29
②④②④ |①---|
口口口口 |②---|
口口口口 |③---|
①③①③ |④---|
30
口口口口 |①-②-|
①②⑥口 |③-④-|
口⑤④③ |----|
口口口口 |--⑤⑥|
31
②④口① |①---|
③⑤口口 |②-③-|
②④口口 |--④-|
口口口口 |--⑤-|
32
口口口口 |--①-|
口口口① |②---|
口口②口
口口口口

口口口口
口口口口
口口⑥⑤ |----|
③④口口 |③④⑤⑥|
33
①①①① |----|
②口口口 |①---|
⑤③口口 |②-③-|
④口口口 |④-⑤-|
34
口口口口 |--①-|
口②口口 |②---|
③④口口 |----|
口①⑥⑤ |③④⑤⑥|
35
①①①① |----|
口口②口 |①---|
口口⑤③ |②-③-|
口口④口 |④-⑤-|
36
口口口口 |--①-|
口口④② |②---|
口③口口 |----|
口口口① |--③④|
37
口口②① |①---|
口③口口 |②③④-|
④口⑥④ |----|
口⑤口口 |--⑤⑥|
38
口口②口 |①---|
口③口① |②③④-|
④口口④ |----|
口口口口 |----|
39
口④②① |----|
口口口③ |--①-|
口口口⑤ |②-③-|
口口口口 |④-⑤-|
40
口⑤口口 |①-②-|
口③口④ |----|
④①③口 |③--④|
②口⑤口 |--⑤-|
41
口口口③ |①--②|
口口②口 |--③-|
口①口口
口口口口

口④⑤口
④⑥⑥⑤
⑤⑥⑥④ |--④-|
口⑤④口 |⑤-⑥-|
42
③④口口 |----|
⑦⑧⑥⑤ |①②③④|
口口⑩⑨ |⑤⑥⑦⑧|
⑪⑫②① |⑨⑩⑪⑫|
43
口口①② |①---|
口口口③ |②---|
①③④⑤ |③---|
口口口口 |④-⑤-|
44
口②口④ |①-②-|
②①④③ |③-④-|
口⑤口口 |⑤---|
口③⑤① |----|
45
口口①口 |①---|
①③口④ |②---|
口②⑥③ |③--④|
⑤①③② |⑤-⑥-|
46
③①口② |①-②-|
口③①口 |③---|
③①口④ |----|
口口口口 |--④-|
47
口口口① |①--②|
口口②④ |③-④-|
①③口口
口口口口

口口⑤口
口口口口
⑥口⑤口 |⑤---|
口⑤口口 |--⑥-|
48
①口口口 |①--②|
④②口口 |③-④-|
口口口①
口口口③

口⑤口口
口⑦口口
口⑤⑥口 |⑤---|
口口⑤口 |--⑥⑦|
49
①口口口 |①--②|
⑥口⑥⑥ |--③-|
②④⑤② |④-⑤-|
③⑤④③ |--⑥-|
50
口②口口 |----|
口①口口 |①-②-|
口②口口 |----|
口②口口 |----|
51
口口①口 |①---|
①口口① |②---|
口口②口
②口口②

③口⑤③
口口③口
④口口④ |③---|
口口④口 |④-⑤-|
52
⑤①口⑤ |①-②-|
①⑤⑤① |③-④-|
口③②口 |⑤---|
③④口③ |----|
53
口③①③ |①---|
口口口口 |②---|
①②①③ |③--④|
④口⑤② |--⑤-|
54
③口③口 |①-②-|
①②①口 |③---|
口①口口
口口口口

口口口口
⑤口口口
口④口口 |----|
口口口口 |④-⑤-|
55
③③③口 |①---|
口⑤口② |②-③-|
口口④口 |----|
口①①① |④-⑤-|
56
③口口口 |①-②-|
③口口① |--③-|
③口口① |----|
口②口① |----|
57
口②口口 |①--②|
口口③口 |--③-|
口①口口
口口口口

口口④口
口⑥口口
口⑤口口 |④--⑤|
口口口口 |--⑥-|
58
②⑦⑦② |①---|
口口④⑥ |②-③-|
②⑤①② |④-⑤-|
口③口口 |⑥-⑦-|
59
口口口口 |----|
口口口口 |----|
口口口口 |--①-|
①②口③ |②-③-|
60
口口口口 |①---|
口口口口 |----|
口口口口 |----|
口口①口 |----|
61
③口②⑥ |①--②|
⑤①口④ |--③-|
④口①⑤ |④--⑤|
⑥②口③ |--⑥-|
62
④口③口 |①---|
口①①② |--②-|
口①①口 |③---|
口口口口 |④---|
63
口①④④ |①-②-|
①③①口 |③-④-|
口①②口
口口口口

⑥⑥口口
口口口口
口口口口 |--⑤-|
⑤⑤⑥⑥ |--⑥-|

不確定度: 0

最終更新:2014年08月01日 02:10