LANA - Answer I -
TOMOSUKE×Jazzin'park

EXTREME

Level: 8
BPM: 171
Notes: 519

1
口口口口 |----|
口口口口 |----|
口口口口 |----|
口口口口 |----|
2
口④口口 |①-②-|
②⑥⑧口 |③-④-|
③⑤口口 |⑤-⑥-|
①口⑦口 |⑦-⑧-|
3
口⑤口② |①-②-|
口⑦口④ |③-④-|
口⑥①③ |⑤-⑥-|
口⑧口口 |⑦-⑧-|
4
口⑤口口 |①-②-|
②⑥⑧口 |③-④-|
③④口口 |⑤-⑥-|
①口⑦口 |⑦-⑧-|
5
口口口③ |①-②-|
口口口④ |③-④-|
口口①②
口口口口

口口口口
口口口口
口⑥⑧口 |⑤-⑥-|
⑤口口⑦ |⑦-⑧-|
6
①口口① |①---|
③口②③ |--②-|
口②口口 |----|
口口口口 |③---|
7
口④③口 |--①-|
⑤①口② |----|
口口①口 |②-③-|
口口口口 |④-⑤-|
8
③口口口 |①-②-|
口②口⑥ |③-④-|
①⑧⑤① |⑤-⑥-|
⑦口口④ |⑦-⑧-|
9
⑦口口④ |①-②-|
①⑥③口 |③-④-|
⑤口口② |⑤-⑥-|
口口口⑧ |⑦-⑧-|
10
口⑦口口 |①-②-|
⑥口⑧③ |③-④-|
口⑤②口 |⑤-⑥-|
④①口口 |⑦-⑧-|
11
口口口① |①-②-|
口④口口 |③-④-|
口⑤③口 |----|
口②口口 |⑤---|
12
口口①口 |①---|
①⑤口口 |②-③-|
④口⑥③ |----|
口口②口 |④-⑤⑥|
13
口口口口 |①---|
口口⑤① |②-③-|
口④口③ |----|
口口②口 |④-⑤-|
14
口口②口 |①---|
①口口口 |--②-|
口口①口
口口口口

口口口口
口⑤口口
口口④③ |--③-|
口口口口 |④-⑤-|
15
口口口口 |----|
口口口口 |----|
口口口② |----|
口口①口 |①-②-|
16
口口①口 |①---|
①⑤③口 |②-③-|
④②⑥口 |----|
口口口口 |④-⑤⑥|
17
口口口口 |①---|
口口⑤① |②-③-|
口④口③ |----|
口口②口 |④-⑤-|
18
口口②口 |①---|
①③④④ |--②-|
口口①口 |--③-|
口口口口 |--④-|
19
①①口口 |①-②-|
口口口口 |③-④-|
④②③① |--⑤-|
口口口⑤ |----|
20
口③口口 |①---|
口④①① |②---|
口口口⑤ |③-④-|
口口②口 |--⑤-|
21
口口口口 |----|
口口口口 |----|
口口口口 |----|
口口口口 |----|
22
口口口口 |①---|
①①口口 |--②-|
口口口口
口②口口

口口口口
口⑤口口
口口③④ |③-④-|
口口口口 |--⑤-|
23
口口口① |--①-|
口口口③ |----|
②口③口 |----|
口②口口 |②-③-|
24
①②②口 |①---|
④①口口 |--②-|
口④口③ |----|
口口③口 |③-④-|
25
口口口① |①---|
口口①口 |--②-|
口口口口 |----|
②口口② |----|
26
口①②口 |①-②-|
④口口③ |--③-|
③⑤⑤④ |--④-|
口口口口 |--⑤-|
27
①口口② |--①-|
口①②口 |②---|
口口口口 |----|
口口口口 |----|
28
②口口② |①---|
口④③口 |②---|
口③④口 |③-④-|
①⑤⑤① |--⑤-|
29
口①①口 |--①-|
③口口② |--②-|
②口口③ |--③-|
口口口口 |----|
30
②口⑤① |①---|
口④④口 |②---|
口③③口 |③-④-|
①⑤口② |--⑤-|
31
口①口口 |--①-|
口口③⑤ |--②-|
②口口② |--③-|
口④①口 |④-⑤-|
32
②口口② |①---|
口④③口 |②---|
口③④口 |③-④-|
①⑤⑤① |--⑤-|
33
口①①口 |--①-|
③口口② |--②-|
②口口③ |--③-|
口口口口 |----|
34
②口⑤① |①---|
口④④口 |②---|
口③③口 |③-④-|
①⑤口② |--⑤-|
35
口①口口 |--①-|
口口③⑤ |--②-|
②口口② |--③-|
口④①口 |④-⑤-|
36
①⑤⑤① |①---|
口④③口 |②---|
口③④口 |③-④-|
②口口② |--⑤-|
37
口口口口 |--①-|
③口口② |--②-|
②口口③ |--③-|
口①①口 |----|
38
②口⑤① |①---|
口③③口 |②---|
口④④口 |③-④-|
①⑤口② |--⑤-|
39
口①口口 |--①-|
口口口口 |--②-|
口③口④ |--③-|
②口①② |④---|
40
口③②口 |①---|
口①口口 |②-③-|
口④口口 |----|
口口⑤口 |④-⑤-|
41
口口口口 |--①-|
口①口口 |----|
口口口口 |----|
口口口口 |----|
42
③②①③ |①---|
②口口① |--②-|
①口口② |----|
口①②口 |--③-|
43
口口口口 |--①-|
③口口③ |②-③-|
①③③② |----|
口①②口 |----|
44
①①口口 |①---|
口⑤①③ |②-③-|
③③口⑤ |④---|
口⑤④② |⑤---|
45
④口②④ |①-②-|
②④④口 |③---|
口口口口 |④---|
①口口③ |----|
46
③③⑤口 |①---|
⑤口③① |②-③-|
①①口口 |④---|
口⑤④② |⑤---|
47
④口口④ |①-②-|
口④④② |③---|
口②口口 |④---|
①口口③ |----|
48
口⑤口口 |①---|
③口⑤① |②-③-|
①口口③ |④---|
口⑤④② |⑤---|
49
口口②口 |①-②-|
口②⑤口 |③---|
口④口口 |④---|
①口口③ |⑤---|
50
③①②③ |①---|
①③③② |--②-|
②口口① |----|
口②①口 |③---|
51
③口口口 |①---|
口口⑤口 |②---|
④②口口 |③--④|
口口①口 |--⑤-|
52
口②①① |①---|
③③口口 |②-③-|
口①口③
口口口口

口口⑤⑤
口口④④
口口口口 |--④-|
⑤口口口 |⑤---|
53
口⑤口口 |①---|
口口口④ |②---|
口②口口 |③--④|
口口①③ |--⑤-|
54
口口口口 |①---|
③口①口 |②-③-|
口口③③
①①②口

口口口⑤
口口口口
④④口口 |--④-|
⑤⑤口口 |⑤---|
55
口②④口 |①---|
口⑤①④ |②---|
③口⑤口 |③--④|
口③口口 |--⑤-|
56
口②口① |----|
②口④口 |①---|
口④口③ |②--③|
口口③口 |--④-|
57
②④④③ |----|
④口口④ |①---|
①口口口 |②--③|
③口口② |--④-|
58
口口口口 |①---|
口口口口 |----|
口①①口 |----|
口口口口 |----|
59
⑦口口⑦ |①-②-|
口⑥⑤口 |③-④-|
口②④口 |⑤-⑥-|
①口口③ |⑦---|
60
口口口口 |①---|
口③口⑤ |②---|
③①④口 |③---|
①口口② |④-⑤-|
61
口①口① |①---|
①口③口 |②---|
口口口② |③---|
口口④口 |④---|
62
口口口口 |①---|
③口口⑤ |②---|
①③④口 |③---|
口①口② |④-⑤-|
63
①口口① |①---|
口①③口 |②---|
口口口② |③---|
口口④口 |④---|
64
口③口口 |①---|
③口口口 |②---|
口①④口 |③---|
①口口② |④---|
65
②口口③ |①---|
口④④① |②---|
口口口口 |③---|
③口口② |④---|
66
口口②口 |①---|
口口口② |--②-|
①口口口
口①口口

口口口口
口口口口
③口口③ |----|
口③③口 |③---|
67
口口口口 |①---|
口口③口 |②-③-|
口②①口
口口口口

口口口口
口口口口
口口⑥口 |--④-|
口⑤④口 |⑤-⑥-|
68
口①口① |①-②-|
口口③口 |③-④-|
口②口口
④口④口

⑦口⑦口
口⑤口口
口⑧⑥口 |⑤-⑥-|
口口口口 |⑦-⑧-|
69
口⑤⑥口 |①-②-|
⑦③①④ |--③-|
口口口口 |④-⑤-|
口②口② |⑥-⑦-|
70
口口口③ |①-②-|
口⑧②⑥ |③-④-|
⑦①⑤口 |⑤-⑥-|
口④口口 |⑦-⑧-|
71
口口①④ |①-②-|
口口口口 |③-④-|
口③⑤口 |----|
②⑥口口 |⑤-⑥-|
72
口口①④ |①-②-|
口②⑤⑦ |③-④-|
③⑥⑧口 |⑤-⑥-|
口口口口 |⑦-⑧-|
73
口口②口 |①-②-|
口③口口 |③-④-|
④口口口
口①口口

口口口口
口口口口
口口⑤口 |----|
口⑥口口 |⑤-⑥-|
74
口口口口 |①---|
①①①① |----|
口口口口 |----|
口口口口 |----|

不確定度: 0

最終更新:2014年08月01日 22:47