snow prism
Qrispy Joybox

EXTREME

Level: 9
BPM: 196
Notes: 636

1
口口口口 |----|
口口口口 |----|
口口口口 |----|
口口口口 |----|
2
口①②口 |----|
口③口④ |----|
⑤口⑥口 |①②③④|
口⑦⑧口 |⑤⑥⑦⑧|
3
口口⑥④ |①--②|
①⑦②口 |③-④-|
口③口⑧ |⑤--⑥|
⑤口口① |⑦-⑧-|
4
⑤口口⑥ |①--②|
①口口④ |③-④-|
⑤口②⑥ |⑤---|
口③口口 |⑥---|
5
口口②口 |①--②|
⑤③①口 |③-④-|
口口⑥⑧ |⑤--⑥|
①⑦口④ |⑦-⑧-|
6
⑤口口口 |①--②|
口口②④ |③-④-|
①③口口 |⑤---|
口口口口 |----|
7
口口⑥④ |①--②|
①⑦②口 |③-④-|
口③口⑧ |⑤--⑥|
⑤口口① |⑦-⑧-|
8
⑤口口⑥ |①--②|
①口口④ |③-④-|
⑤口②⑥ |⑤---|
口③口口 |⑥---|
9
⑭①②⑭ |①②③④|
⑬③④口 |⑤⑥⑦⑧|
⑪⑤⑥⑫ |⑨⑩⑪⑫|
⑨⑦⑧⑩ |⑬-⑭-|
10
口口口口 |----|
口口口口 |----|
口口口口 |----|
口口口口 |----|
11
口口口① |①---|
②③④⑤ |----|
口口口口 |----|
口口口口 |②③④⑤|
12
口口口① |①---|
口口口口 |--②-|
口②口口 |--③-|
口口③口 |----|
13
口⑤③口 |①-②-|
④口⑧口 |③-④-|
⑦口⑥② |⑤-⑥-|
口①口口 |⑦-⑧-|
14
③口口③ |--①-|
④①口④ |--②-|
口口口口 |--③-|
口口②口 |--④-|
15
口③口口 |①-②-|
口⑧②口 |③-④-|
④⑥⑤口 |⑤-⑥-|
①口⑦口 |⑦-⑧-|
16
口口⑤⑤ |--①-|
口口①③ |--②-|
④口口口 |--③④|
口②口口 |⑤---|
17
口③口口 |①-②-|
口口⑧⑤ |③-④-|
口④②口 |⑤-⑥-|
①⑥口⑦ |⑦-⑧-|
18
③口口③ |--①-|
④①口④ |--②-|
口口口口 |--③-|
口口②口 |--④-|
19
口⑦口⑤ |①-②-|
⑦④口口 |③-④-|
口②③⑦ |⑤-⑥-|
⑥口⑦① |--⑦-|
20
②口①③ |--①-|
口②③① |--②-|
①③②口 |--③-|
③①口② |----|
21
口⑤③口 |①-②-|
④口⑧口 |③-④-|
⑦口⑥② |⑤-⑥-|
口①口口 |⑦-⑧-|
22
③口口③ |--①-|
④①口④ |--②-|
口口口口 |--③-|
口口②口 |--④-|
23
口③口口 |①-②-|
口⑧②口 |③-④-|
④⑥⑤口 |⑤-⑥-|
①口⑦口 |⑦-⑧-|
24
口口⑤⑤ |--①-|
口口①③ |--②-|
④口口口 |--③④|
口②口口 |⑤---|
25
口③口口 |①-②-|
口口⑧⑤ |③-④-|
口④②口 |⑤-⑥-|
①⑥口⑦ |⑦-⑧-|
26
口④④口 |--①-|
口①口口 |--②-|
③口口③ |--③-|
口口②口 |--④-|
27
⑤口口① |①-②-|
口⑥②口 |③-④-|
口③⑦口 |⑤-⑥-|
④口口⑧ |⑦-⑧-|
28
口⑤口口 |--①-|
①口⑥② |--②-|
③⑦口④ |③-④-|
口口⑧口 |⑤⑥⑦⑧|
29
①口②① |①---|
③口口③ |--②-|
口口口口 |----|
口②口口 |③---|
30
口①②③ |--①-|
口口口口 |----|
口口口口 |②---|
口口①口 |③---|
31
口②口口 |①---|
口口口口 |--②-|
③口口③ |----|
①口②① |③---|
32
③③口口 |----|
口口口② |--①②|
口口口口 |③---|
口①口口 |----|
33
口口口② |①---|
口①①口 |--②-|
口③③口 |----|
②口口口 |③---|
34
①口②③ |--①-|
口口口口 |----|
口口口口 |②---|
口口口① |③---|
35
④⑤口⑧ |①-②-|
⑥③⑦口 |③-④-|
口口②口 |⑤-⑥-|
口口口① |⑦-⑧-|
36
口口①口 |--①-|
口②口口 |--②-|
口口③口 |--③-|
口④口口 |--④-|
37
④口口口 |--①-|
口口口③ |--②-|
②口口口 |--③-|
口口①口 |--④-|
38
口③⑤口 |--①-|
④口②口 |②-③-|
口⑥⑦① |④-⑤-|
口⑧⑨口 |⑥⑦⑧⑨|
39
口口口口 |①---|
②③④⑤ |----|
①口口口 |----|
①口口口 |②③④⑤|
40
口口口① |①---|
口口口口 |--②-|
口口②口 |--③-|
口③口口 |----|
41
口③⑤口 |①-②-|
口⑧口④ |③-④-|
②⑥口⑦ |⑤-⑥-|
口口①口 |⑦-⑧-|
42
③口口③ |--①-|
④口①④ |--②-|
口口口口 |--③-|
口②口口 |--④-|
43
口口③口 |①-②-|
口②⑧口 |③-④-|
口⑤⑥④ |⑤-⑥-|
口⑦口① |⑦-⑧-|
44
⑤⑤口口 |--①-|
③①口口 |--②-|
口口口④ |--③④|
口口②口 |⑤---|
45
口口③口 |①-②-|
⑤⑧口口 |③-④-|
口②④口 |⑤-⑥-|
⑦口⑥① |⑦-⑧-|
46
③口口③ |--①-|
④口①④ |--②-|
口口口口 |--③-|
口②口口 |--④-|
47
⑤口⑦口 |①-②-|
口口④⑦ |③-④-|
⑦③②口 |⑤-⑥-|
①⑦口⑥ |--⑦-|
48
③①口② |--①-|
①③②口 |--②-|
口②③① |--③-|
②口①③ |----|
49
口③⑤口 |①-②-|
口⑧口④ |③-④-|
②⑥口⑦ |⑤-⑥-|
口口①口 |⑦-⑧-|
50
③口口③ |--①-|
④口①④ |--②-|
口口口口 |--③-|
口②口口 |--④-|
51
口口③口 |①-②-|
口②⑧口 |③-④-|
口⑤⑥④ |⑤-⑥-|
口⑦口① |⑦-⑧-|
52
⑤⑤口口 |--①-|
③①口口 |--②-|
口口口④ |--③④|
口口②口 |⑤---|
53
口口③口 |①-②-|
⑤⑧口口 |③-④-|
口②④口 |⑤-⑥-|
⑦口⑥① |⑦-⑧-|
54
口④④口 |--①-|
口口①口 |--②-|
③口口③ |--③-|
口②口口 |--④-|
55
①口口⑤ |①-②-|
口②⑥口 |③-④-|
口⑦③口 |⑤-⑥-|
⑧口口④ |⑦-⑧-|
56
口口口⑤ |--①-|
②⑥口① |--②-|
④口⑦③ |③-④-|
⑧口口口 |⑤⑥⑦⑧|
57
⑤④③口 |①-②-|
⑥口口② |③-④-|
⑦口口口 |⑤-⑥-|
⑧口①口 |⑦-⑧-|
58
口⑤口口 |①-②-|
口③口① |③-④-|
⑥口②口 |--⑤-|
口口口④ |--⑥-|
59
⑥口口口 |--①-|
口口口⑤ |②-③-|
口口口口 |④-⑤-|
①②③④ |--⑥-|
60
口口口口 |--①-|
③①口口 |②-③-|
口④②口 |--④-|
口口⑤口 |⑤---|
61
口④③② |①-②-|
口口口口 |③-④-|
口口口口
①口口口

⑤口口口
⑥口口口
⑦口口口 |⑤-⑥-|
⑧口口口 |⑦-⑧-|
62
口⑤⑤① |①-②-|
口②口④ |③-④-|
口口③口 |--⑤-|
口⑥⑥口 |--⑥-|
63
⑥口口③ |--①-|
⑦④②⑦ |②-③-|
⑦口⑤⑦ |④-⑤-|
①口口口 |⑥-⑦-|
64
③①①② |--①-|
口③②口 |--②-|
口②③口 |--③-|
②①①③ |----|
65
⑤④③口 |①-②-|
⑥口口② |③-④-|
⑦口口口 |⑤-⑥-|
⑧①口口 |⑦-⑧-|
66
口⑤口口 |①-②-|
口③口① |③-④-|
⑥口②口 |--⑤-|
口口口④ |--⑥-|
67
⑦口口口 |--①-|
口口口⑤ |②-③-|
口⑥口口 |④-⑤-|
①②③④ |⑥-⑦-|
68
口口口口 |①-②-|
④②①口 |③-④-|
口⑤③口 |--⑤-|
口口⑥口 |⑥---|
69
口④③② |①-②-|
口口口口 |③-④-|
口口口口
①口口口

⑤口口口
⑥口口口
⑦口口口 |⑤-⑥-|
⑧口口口 |⑦-⑧-|
70
口⑤⑤① |①-②-|
口②口④ |③-④-|
口口③口 |--⑤-|
口⑥⑥口 |--⑥-|
71
⑤口口① |①-②-|
口⑥②口 |③-④-|
口③⑦口 |⑤-⑥-|
④口口⑧ |⑦-⑧-|
72
口①①口 |----|
②口口② |①---|
口口口口 |--②-|
口口口口 |----|
73
口口口口 |①---|
口口口口 |----|
①口口① |----|
口口口口 |----|
74
口口口口 |----|
口口口口 |----|
口口口口 |----|
口口口口 |----|
75
口口口口 |----|
口口口口 |----|
口口口口 |----|
口口口口 |----|
76
⑨①②⑩ |①②③④|
⑪③④⑫ |⑤⑥⑦⑧|
⑬⑤⑥⑭ |⑨⑩⑪⑫|
⑮⑦⑧⑯ |⑬⑭⑮⑯|
77
④①口口 |①---|
口②口口 |②-③-|
⑤口③口 |④---|
口口口⑥ |⑤-⑥-|
78
口口口② |①-②-|
⑤口口口 |③-④-|
口①④口 |⑤---|
⑥③口口 |⑥---|
79
⑨①②⑩ |①②③④|
⑪③④⑫ |⑤⑥⑦⑧|
⑬⑤⑥⑭ |⑨⑩⑪⑫|
⑮⑦⑧⑯ |⑬⑭⑮⑯|
80
⑨①②口 |①②③④|
口③④口 |⑤⑥⑦⑧|
口⑤⑥口 |⑨---|
口⑦⑧口 |----|
81
口⑨⑩⑤ |①-②③|
①口③② |④-⑤-|
口⑥⑧⑦ |⑥-⑦⑧|
④口口口 |⑨-⑩-|
82
①口口口 |①-②③|
⑥口⑤⑥ |④-⑤-|
⑦口口⑦ |⑥---|
口④③② |⑦---|
83
④口口口 |①-②③|
⑥①⑧⑦ |④-⑤-|
⑨口⑤⑩ |⑥-⑦⑧|
口口③② |⑨-⑩-|
84
④⑤口⑫ |①-②③|
⑦口⑧⑩ |④---|
⑨⑪⑥口 |⑤⑥⑦⑧|
①口③② |⑨⑩⑪⑫|
85
④口⑤口 |①-②③|
⑥①⑩口 |④-⑤-|
口口⑧⑦ |⑥-⑦⑧|
⑨口③② |⑨-⑩-|
86
④口口⑤ |①-②③|
⑥①口⑥ |④-⑤-|
⑦口口⑦ |⑥---|
口口③② |⑦---|
87
口①②口 |①②③④|
口③④口 |⑤⑥⑦⑧|
口⑤⑥口
口⑦⑧口

⑮⑮口口
⑨口口⑩
⑪口口⑫ |⑨⑩⑪⑫|
⑬口口⑭ |⑬⑭⑮-|


不確定度: 0

最終更新:2013年02月26日 21:26