ナナホシ
S-C-U

ADVANCED

Level: 7
BPM: 166
Notes: 442

1
口口口口 |----|
口口口口 |----|
口口口口 |----|
口口口口 |----|
2
①口口口 |①---|
口②口③ |--②-|
口口口口 |----|
口口口口 |③---|
3
口口口口 |--①-|
口口口口 |----|
②口①口 |②---|
口③口口 |③---|
4
口口口① |①---|
③口②口 |--②-|
口口口口 |----|
口口口口 |③---|
5
口口口口 |--①-|
口口口口 |----|
口①口② |②---|
口口③口 |③---|
6
①口口⑤ |①-②-|
②口口⑥ |--③-|
口④口口 |④---|
口③口口 |⑤-⑥-|
7
口口口口 |--①-|
口口口口 |②---|
③口②④ |③---|
口口①口 |④---|
8
口①⑤口 |①-②-|
口②⑥口 |--③-|
④口口口 |④---|
③口口口 |⑤-⑥-|
9
口口口口 |--①-|
③口口④ |②---|
口口口② |③---|
口口口① |④---|
10
①口口口 |①--②|
③口口口 |--③-|
口口口②
口口口口

⑤⑥口口
口口口口
口口口口 |-④--|
口口口④ |⑤-⑥-|
11
口口口① |①--②|
口口口③ |--③-|
②口口口
口口口口

口口⑥⑤
口口口口
口口口口 |-④--|
④口口口 |⑤-⑥-|
12
⑦①口口 |①-②-|
口口口④ |③-④-|
口③②⑥ |⑤-⑥-|
口⑧口⑤ |⑦-⑧-|
13
口口③① |①-②-|
口口④② |③-④-|
⑦⑤口口 |⑤-⑥-|
⑧⑥口口 |⑦-⑧-|
14
①口口口 |①--②|
③口口口 |--③-|
口口口②
口口口口

⑤⑥口口
口口口口
口口口口 |-④--|
口口口④ |⑤-⑥-|
15
口口口① |①--②|
口口口③ |--③-|
②口口口
口口口口

口口⑥⑤
口口口口
口口口口 |-④--|
④口口口 |⑤-⑥-|
16
⑦①口口 |①-②-|
口口口④ |③-④-|
口③②⑥ |⑤-⑥-|
口⑧口⑤ |⑦-⑧-|
17
口口③① |①-②-|
口口④② |③-④-|
⑦⑤口口 |⑤-⑥-|
⑧⑥口口 |⑦-⑧-|
18
口③口① |--①-|
④口②⑥ |②-③-|
口口口口 |④---|
口口口⑤ |⑤-⑥-|
19
口口口口 |①-②-|
口②口口 |③---|
③⑤①⑦ |④-⑤-|
④口⑥口 |⑥-⑦-|
20
①口口口 |①-②-|
⑥②口④ |③-④-|
口⑦③口 |⑤---|
口口口⑤ |⑥-⑦-|
21
口口④口 |--①-|
口③口① |②-③-|
口口②口 |④---|
口口口口 |----|
22
①口③口 |--①-|
⑥②口④ |②-③-|
口口口口 |④---|
⑤口口口 |⑤-⑥-|
23
口口口口 |①-②-|
口口②口 |③---|
⑦①⑤③ |④-⑤-|
口⑥口④ |⑥-⑦-|
24
口口②① |①---|
口口③⑥ |②-③-|
口④口口 |④-⑤-|
口⑤口口 |--⑥-|
25
③口口口 |--①-|
口②④口 |②-③-|
口口①口 |④---|
口口口口 |----|
26
口③口① |--①-|
④口②⑥ |②-③-|
口口口口 |④---|
口口口⑤ |⑤-⑥-|
27
口口口口 |①-②-|
口②口口 |③---|
③⑤①⑦ |④-⑤-|
④口⑥口 |⑥-⑦-|
28
①口口口 |①-②-|
⑥②口④ |③-④-|
口⑦③口 |⑤---|
口口口⑤ |⑥-⑦-|
29
口口④口 |--①-|
口③口① |②-③-|
口口②口 |④---|
口口口口 |----|
30
①口③口 |--①-|
⑥②口④ |②-③-|
口口口口 |④---|
⑤口口口 |⑤-⑥-|
31
口口口口 |①-②-|
口口②口 |③---|
⑦①⑤③ |④-⑤-|
口⑥口④ |⑥-⑦-|
32
口口②① |①---|
口口③⑥ |②-③-|
口④口口 |④-⑤-|
口⑤口口 |--⑥-|
33
③口口口 |--①-|
口②④口 |②-③-|
口口①口 |④---|
口口口口 |----|
34
口口口⑦ |①-②-|
①口⑥口 |③--④|
②口③口 |-⑤--|
口⑤口④ |⑥-⑦-|
35
④口口口 |①-②-|
口①口② |③--④|
口口口口 |----|
③口口口 |----|
36
口口口⑦ |①-②-|
①口⑥口 |③--④|
②口③口 |-⑤--|
口⑤口④ |⑥-⑦-|
37
④口口口 |①-②-|
口①口② |③--④|
口口口口 |----|
③口口口 |----|
38
口口⑦① |①--②|
⑥口②口 |--③-|
口③⑤口 |④-⑤-|
④口口口 |⑥-⑦-|
39
①⑦口口 |①--②|
口②口⑥ |--③-|
口⑤③口 |④-⑤-|
口口口④ |⑥-⑦-|
40
口口⑦① |①--②|
⑥口②口 |--③-|
口③⑤口 |④-⑤-|
④口口口 |⑥-⑦-|
41
①口口① |①-②-|
口③③口 |--③-|
②⑤⑤② |--④-|
口④④口 |--⑤-|
42
口①①口 |①---|
口口口口 |----|
口口口口 |----|
口口口口 |----|
43
①④①④ |①--②|
⑥③⑥③ |--③-|
②⑤②⑤ |④--⑤|
口口口口 |--⑥-|
44
口③③口 |①--②|
⑤口口④ |--③-|
口⑦⑥口 |④-⑤-|
①②②① |⑥-⑦-|
45
②口口① |①--②|
④③③⑤ |--③-|
②⑥⑥① |④--⑤|
④口口⑤ |--⑥-|
46
口②④口 |①-②-|
⑤口口⑥ |③-④-|
⑦口口⑧ |⑤-⑥-|
口①③口 |⑦-⑧-|
47
①口③① |①---|
②④口口 |----|
口口口口 |②---|
口口口口 |③-④-|
48
口口口口 |①---|
口口口口 |----|
②④口口 |②---|
①口③① |③-④-|
49
②口口① |①-②-|
③口口⑤ |③-④-|
④口口⑥ |⑤-⑥-|
口⑧口⑦ |⑦-⑧-|
50
②口口① |①--②|
口④③口 |--③-|
口口口口 |④---|
口⑤⑤口 |⑤---|
51
①④①④ |①--②|
⑥③⑥③ |--③-|
②⑤②⑤ |④--⑤|
口口口口 |--⑥-|
52
口③③口 |①--②|
⑤口口④ |--③-|
口⑦⑥口 |④-⑤-|
①②②① |⑥-⑦-|
53
②口口① |①--②|
④③③⑤ |--③-|
②⑥⑥① |④--⑤|
④口口⑤ |--⑥-|
54
口②口口 |①--②|
④口口⑤ |--③-|
⑥口口⑦ |④-⑤-|
口①③口 |⑥-⑦-|
55
①口③① |①---|
②④口口 |----|
口口口口 |②---|
口口口口 |③-④-|
56
口口口口 |①---|
口口口口 |----|
②④口口 |②---|
①口③① |③-④-|
57
②口口① |①-②-|
③口口⑤ |③-④-|
④口口⑥ |⑤-⑥-|
口⑧口⑦ |⑦-⑧-|
58
①口口① |①--②|
口②③口 |--③-|
②口口③ |④---|
④口口④ |----|
59
①口口口 |①--②|
③口口口 |--③-|
口口口②
口口口口

⑤⑥口口
口口口口
口口口口 |-④--|
口口口④ |⑤-⑥-|
60
口口口① |①--②|
口口口③ |--③-|
②口口口
口口口口

口口⑥⑤
口口口口
口口口口 |-④--|
④口口口 |⑤-⑥-|
61
⑦①口口 |①-②-|
口口口④ |③-④-|
口③②⑥ |⑤-⑥-|
口⑧口⑤ |⑦-⑧-|
62
口口③① |①-②-|
口口④② |③-④-|
⑦⑤口口 |⑤-⑥-|
⑧⑥口口 |⑦-⑧-|
63
①口口口 |①--②|
③口口口 |--③-|
口口口②
口口口口

⑤⑥口口
口口口口
口口口口 |-④--|
口口口④ |⑤-⑥-|
64
口口口① |①--②|
口口口③ |--③-|
②口口口
口口口口

口口⑥⑤
口口口口
口口口口 |-④--|
④口口口 |⑤-⑥-|
65
⑦①口口 |①-②-|
口口口④ |③-④-|
口③②⑥ |⑤-⑥-|
口⑧口⑤ |⑦-⑧-|
66
口口③① |①-②-|
口口④② |③-④-|
⑦⑤口口 |⑤-⑥-|
⑧⑥口口 |⑦-⑧-|
67
⑥①②⑥ |①-②-|
①③④② |--③-|
口⑤⑤口 |④---|
口③④口 |⑤-⑥-|
68
口口口口 |--①-|
口②②口 |②---|
口口口口 |----|
①口口① |----|


不确定度: 0

最終更新:2012年11月07日 23:38