Cosmic Hurricane
TAG

EXTREME

Level: 10
BPM: 188
Notes: 808

1
口口口口 |----|
口口口口 |----|
口口口口 |----|
口口口口 |----|
2
口口口口 |①---|
口口口口 |----|
口①口口 |----|
①口①口 |----|
3
口①口① |①---|
口口①口 |----|
口口口口 |----|
口口口口 |----|
4
口口口口 |①---|
口口口口 |----|
口口①口 |----|
口①口① |----|
5
①口①口 |①---|
口①口口 |----|
口口口口 |----|
口口口口 |----|
6
口口口口 |①---|
口①口口 |----|
口口口口 |----|
①口①口 |----|
7
口①口① |①---|
口口口口 |----|
口口①口 |----|
口口口口 |----|
8
口口口口 |①---|
口口①口 |----|
口口口口 |----|
口①口① |----|
9
①口①口 |①---|
口口口口 |----|
口①口口 |----|
口口口口 |----|
10
口口③② |①-②-|
④⑤口口 |--③-|
口①口口 |--④-|
①口①口 |--⑤-|
11
口①口① |①-②-|
口口①口 |--③-|
②③口口
口口口口

口口口口
口口⑤④
口口口口 |--④-|
口口口口 |--⑤-|
12
口口口口 |①-②-|
口口⑤④ |--③-|
②③①口 |--④-|
口①口① |--⑤-|
13
①口①口 |①-②-|
口①口口 |--③-|
口口⑤④ |--④-|
②③口口 |--⑤-|
14
口口④口 |①--②|
②①口③ |--③-|
⑤口口⑥ |④--⑤|
①口①口 |--⑥-|
15
④①口① |①--②|
②口口③ |--③-|
口口①口 |④--⑤|
⑤口口⑥ |--⑥-|
16
⑧②③① |①-②③|
⑨④⑤⑩ |④⑤⑥⑦|
⑪⑥⑦⑫ |⑧-⑨⑩|
⑬口口⑭ |⑪⑫⑬⑭|
17
⑨①⑩⑧ |①-②③|
口⑤②口 |④-⑤⑥|
口③⑥口 |⑦-⑧-|
口⑦④口 |⑨-⑩-|
18
口口口口 |----|
口口口口 |----|
口口口口 |----|
口口口口 |----|
19
①②口① |①---|
②口①口 |②---|
口口口口
口口口口

口口口口
口口⑥口
③口口④ |③-④-|
⑤③口口 |⑤-⑥-|
20
①口⑦⑥ |①-②-|
③⑤口② |③-④-|
⑤④口⑧ |⑤-⑥-|
⑦口③口 |⑦-⑧-|
21
①口口口 |①---|
②口④② |②---|
③口①口 |③-④-|
⑤③口⑥ |⑤-⑥-|
22
①口口口 |①-②-|
③⑥口④ |③-④-|
⑤③口⑦ |⑤-⑥-|
⑦口②口 |⑦---|
23
①④⑥② |①---|
②口①口 |②---|
③口③口 |③-④-|
⑤口口口 |⑤-⑥-|
24
①⑥口② |①-②-|
③口⑤⑦ |③-④-|
⑤⑧口④ |⑤-⑥-|
⑦③口口 |⑦-⑧-|
25
①口口口 |①---|
②②口口 |②---|
③口①④ |③-④-|
⑤③⑥口 |⑤-⑥-|
26
①口⑧口 |①-②-|
③②⑤④ |③-④-|
⑤口③⑦ |⑤-⑥-|
⑦⑥口口 |⑦-⑧-|
27
①②口① |①---|
②口⑥口 |②---|
③口口④ |③-④-|
⑤③口口 |⑤-⑥-|
28
①口⑦⑥ |①-②-|
③⑤口② |③-④-|
⑤④口⑧ |⑤-⑥-|
⑦口③口 |⑦-⑧-|
29
①口口口 |①---|
②口④② |②---|
③口①口 |③-④-|
⑤③口⑥ |⑤-⑥-|
30
①口口口 |①-②-|
③⑥口④ |③-④-|
⑤③口⑦ |⑤-⑥-|
⑦口②口 |⑦---|
31
①①③⑥ |①--②|
口⑤②④ |--③-|
④②⑤口 |-④--|
⑥③①① |⑤-⑥-|
32
①①⑥口 |①--②|
③⑤②④ |--③-|
④②⑤③ |-④--|
口⑥①① |⑤-⑥-|
33
②⑦口① |①---|
③⑧口口 |②③④⑤|
④⑨口⑥ |⑥---|
⑤⑩口口 |⑦⑧⑨⑩|
34
口口口① |①-②③|
口口②⑤ |④-⑤⑥|
口口③⑥
口口④口

口⑨⑧⑩
口口口口
口口口口 |⑦--⑧|
口口口⑦ |⑨-⑩-|
35
口口口口 |①---|
口口①口 |②---|
口①口口 |③---|
①②③④ |④---|
36
①③口口 |①---|
口①③⑥ |②-③-|
口口⑥口 |④---|
①②④⑤ |⑤-⑥-|
37
口口口口 |①---|
口口口口 |②---|
口口口口 |③---|
①②③④ |④---|
38
口口①口 |①---|
③口⑤① |②-③-|
③⑤口口 |④---|
①②④⑤ |⑤---|
39
①口口口 |①---|
口①口口 |②---|
口口口口 |③---|
①②③④ |④---|
40
③口口口 |①---|
口③①口 |②-③-|
口①口口
①②口口

口口口口
口口口口
⑥口口口 |④---|
⑥口④⑤ |⑤-⑥-|
41
⑧②③① |①-②③|
⑨④⑤⑩ |④⑤⑥⑦|
⑪⑥⑦⑫ |⑧-⑨⑩|
⑬口口⑭ |⑪⑫⑬⑭|
42
⑨①⑩⑧ |①-②③|
口⑤②口 |④-⑤⑥|
口③⑥口 |⑦-⑧-|
口⑦④口 |⑨-⑩-|
43
口口口口 |①---|
①口①口 |----|
口①口① |----|
口口口口 |----|
44
口口口① |①---|
口口②口 |----|
口③口口 |----|
口口口口 |②-③-|
45
口口口口 |----|
口口口口 |----|
口口口口 |----|
口口口口 |----|
46
①口口口 |①---|
口口口口 |----|
口②口口 |----|
口口口口 |②---|
47
口口口口 |①---|
口口口口 |----|
口口口① |----|
口口口口 |----|
48
口①口① |①---|
口口②口 |----|
③口口口 |----|
口口口口 |②-③-|
49
口口口口 |----|
口口口口 |----|
口口口口 |----|
口口口口 |----|
50
①口口口 |①---|
口口①③ |----|
口②口口 |②---|
口口口口 |③---|
51
口①口口 |①-②-|
口口口口 |--③-|
口口口口 |--④-|
②③④⑤ |--⑤-|
52
口口口① |①-②-|
口⑤口口 |--③-|
口口⑥口 |--④-|
②③④⑥ |⑤-⑥-|
53
口口口口 |--①-|
口口口口 |--②-|
口口口口 |--③-|
①②③④ |--④-|
54
①口口口 |①-②-|
口口口口 |--③-|
口⑤口口 |--④-|
②③④⑥ |⑤-⑥-|
55
口口口口 |①-②-|
口口①口 |--③-|
口口口口 |--④-|
②③④⑤ |--⑤-|
56
①口口口 |①-②-|
口口口口 |--③-|
⑤口口口 |--④-|
②③④⑥ |⑤-⑥-|
57
⑧②③① |①-②③|
⑨④⑤⑩ |④⑤⑥⑦|
⑪⑥⑦⑫ |⑧-⑨⑩|
⑬口口⑭ |⑪⑫⑬⑭|
58
⑨①⑩⑧ |①-②③|
口⑤②口 |④-⑤⑥|
口③⑥口 |⑦-⑧-|
口⑦④口 |⑨-⑩-|
59
口③口⑥ |①-②-|
口⑧⑧⑧ |③-④⑤|
⑦⑤⑧② |⑥-⑦-|
①口⑧④ |⑧---|
60
①④①④ |①-②-|
口口⑤口 |③-④-|
口口口② |--⑤-|
③⑥口⑦ |⑥-⑦-|
61
①口②口 |①-②-|
⑦①口② |③-④-|
口③⑥④ |--⑤-|
③⑤④口 |⑥-⑦-|
62
④①④① |①-②-|
口⑦口口 |③-④-|
②口口⑤ |--⑤-|
⑥口口③ |⑥-⑦-|
63
口②口① |①-②-|
②口①⑦ |③-④-|
④⑥③口 |--⑤-|
口④⑤③ |⑥-⑦-|
64
①④①④ |①-②-|
②口口口 |③-④-|
口口⑦③ |--⑤-|
口⑥口⑤ |⑥-⑦-|
65
①口②口 |①-②-|
口①⑤② |③-④-|
口③口④ |--⑤-|
③⑥④⑦ |⑥-⑦-|
66
④①④① |①-②-|
口口口② |③-④-|
③口⑤口 |--⑤-|
口⑥口⑦ |⑥-⑦-|
67
口②口④ |①-②-|
②口④⑤ |③-④-|
⑥①⑦③ |--⑤-|
①口③口 |⑥-⑦-|
68
①④①④ |①-②-|
口①⑤口 |③-④-|
口口口② |--⑤-|
③⑥口⑦ |⑥-⑦-|
69
①口②口 |①-②-|
⑦①口② |③-④-|
口③⑥④ |--⑤-|
③⑤④口 |⑥-⑦-|
70
④①④① |①-②-|
口⑦口口 |③-④-|
②口口⑤ |--⑤-|
⑥口口③ |⑥-⑦-|
71
口②口① |①-②-|
②口①⑦ |③-④-|
④⑥③口 |--⑤-|
口④⑤③ |⑥-⑦-|
72
①④①④ |①-②-|
②口口口 |③-④-|
口口⑦③ |--⑤-|
口⑥口⑤ |⑥-⑦-|
73
①口②口 |①-②-|
口①⑤② |③-④-|
口③口④ |--⑤-|
③⑥④⑦ |⑥-⑦-|
74
⑪⑦⑭② |①②③④|
⑬⑨⑧⑥ |⑤⑥⑦⑧|
①③⑩④ |⑨⑩⑪⑫|
⑤⑮⑯⑫ |⑬⑭⑮⑯|
75
口⑤口④ |①②③④|
口⑦⑥⑧ |⑤⑥⑦⑧|
口①口②
③口口口

⑨口⑯口
⑬口口口
⑪⑮⑫口 |⑨⑩⑪⑫|
口口⑭⑩ |⑬⑭⑮⑯|
76
⑦口⑩⑧ |①-②③|
⑨⑤②⑧ |--④-|
⑤口⑥② |⑤⑥⑦⑧|
①③口④ |⑨-⑩-|
77
口口口⑧ |①-②③|
口⑤②口 |-④⑤-|
口⑦⑥② |--⑥-|
①③④④ |⑦-⑧-|
78
口⑤②口 |①-②③|
⑤口⑧② |--④-|
⑦⑨⑥⑧ |⑤⑥⑦⑧|
①③⑩④ |⑨-⑩-|
79
①口⑥④ |①-②③|
⑤口口② |--④-|
⑧口口口 |--⑤-|
③⑦口⑤ |⑥-⑦⑧|
80
⑧④口③ |①-②③|
⑧口⑤① |--④-|
⑩⑥口⑤ |⑤⑥⑦⑧|
②口⑨⑦ |⑨-⑩-|
81
口④口⑤ |①-②③|
⑦④口① |-④⑤-|
口口③口 |--⑥-|
②②⑧⑥ |⑦-⑧-|
82
③口⑩⑥ |①-②③|
⑦⑨口④ |--④-|
⑤口口② |⑤⑥⑦⑧|
①⑤⑧⑧ |⑨-⑩-|
83
③⑦口口 |①-②③|
口口口④ |--④-|
⑤口⑥② |--⑤-|
①口口口 |⑥-⑦-|
84
口口①① |①-②③|
口口②口 |--④-|
口③口②
①①口④

⑦口⑩口
⑨⑤口⑧
⑤口⑥口 |⑤⑥⑦⑧|
口口口口 |⑨-⑩-|
85
口口口② |①-②③|
口⑤⑧口 |-④⑤-|
⑦⑦⑥② |--⑥-|
①③④④ |⑦-⑧-|
86
③⑤②⑥ |①-②③|
⑤口⑧② |--④-|
⑦⑨⑩⑧ |⑤⑥⑦⑧|
①①④④ |⑨-⑩-|
87
①口⑥④ |①-②③|
⑤①⑥② |--④-|
口口口口 |--⑤-|
③⑦口⑤ |⑥-⑦-|
88
④⑩⑨⑤ |①-②③|
⑧④⑨① |--④-|
⑧⑥①⑤ |⑤⑥⑦⑧|
②口③⑦ |⑨-⑩-|
89
④口口⑤ |①-②③|
口④口① |-④⑤-|
口口③口
②②①口

口⑧口口
口口口口
⑥⑥口口 |⑥-⑦-|
口口⑨⑦ |⑧-⑨-|
90
③口⑩⑥ |①-②③|
①⑨口④ |--④-|
⑤⑦口② |⑤⑥⑦⑧|
①⑤⑧⑧ |⑨-⑩-|
91
③⑦口口 |①-②③|
口口口④ |--④-|
⑤口⑥② |--⑤-|
①口口口 |⑥-⑦-|
92
①⑮⑯④ |①②③④|
⑤②③⑥ |⑤⑥⑦⑧|
⑬⑩⑪⑭ |⑨⑩⑪⑫|
⑨⑦⑧⑫ |⑬⑭⑮⑯|
93
①⑮⑯③ |①②③④|
⑤②④⑦ |⑤⑥⑦⑧|
⑬⑨⑩⑭ |⑨⑩⑪⑫|
⑪⑥⑧⑫ |⑬⑭⑮⑯|
94
①口口① |①---|
口①①口 |----|
口口口口 |----|
口口口口 |----|


不確定度: 0

最終更新:2013年02月26日 21:29