Mirage
Mutsuhiko Izumi

EXTREME

Level: 10
BPM: 170
Notes: 770

1
口口口口 |----|
口口口口 |----|
口口口口 |----|
口口口口 |----|
2
口③⑦口 |①②③④|
⑥口口④ |⑤-⑥⑦|
①⑤口口
口口②口

口⑫口口
口⑨口口
口口⑪口 |⑧-⑨-|
⑩⑧口口 |⑩⑪⑫-|
3
④口口口 |①-②③|
口⑥口口 |④-⑤-|
②①口口 |--⑥-|
口⑤③口 |----|
4
口③⑦口 |①②③④|
⑥口口④ |⑤-⑥⑦|
①⑤口口
口口②口

口⑫口⑫
口⑨口口
口口⑪口 |⑧-⑨-|
⑩⑧口口 |⑩⑪⑫-|
5
口口口口 |--①-|
④口①口 |②-③-|
口②口③ |④-⑤-|
口口口⑤ |----|
6
口③⑦口 |①②③④|
⑥口口④ |⑤-⑥⑦|
①⑤口口
口口②口

口⑫口口
口⑨口口
口口⑪口 |⑧-⑨-|
⑩⑧口口 |⑩⑪⑫-|
7
④口口口 |①-②③|
口⑥口口 |④-⑤-|
②①口口 |--⑥-|
口⑤③口 |----|
8
口③⑦口 |①②③④|
⑥口口④ |⑤-⑥⑦|
①⑤口口
口口②口

口⑫口⑫
口⑨口口
口口⑪口 |⑧-⑨-|
⑩⑧口口 |⑩⑪⑫-|
9
口口口口 |--①-|
④口①口 |②-③-|
口②口③ |④-⑤-|
口口口⑤ |----|
10
①②③④ |①②③④|
⑧⑦⑥⑤ |⑤⑥⑦⑧|
⑨⑩⑪⑫ |⑨⑩⑪⑫|
⑯⑮⑭⑬ |⑬⑭⑮⑯|
11
①②③④ |①②③④|
⑧⑦⑥⑤ |⑤⑥⑦⑧|
⑨⑩⑪⑫ |⑨⑩⑪⑫|
⑯⑮⑭⑬ |⑬⑭⑮⑯|
12
口②③① |--①-|
②口③① |②-③-|
口⑤⑥④ |--④-|
⑤口⑥④ |⑤-⑥-|
13
口口口口 |----|
口口口口 |----|
①②③④ |①②③④|
⑧⑦⑥⑤ |⑤⑥⑦⑧|
14
口②③① |--①-|
②口③① |②-③-|
口⑤⑥④ |--④-|
⑤口⑥④ |⑤-⑥-|
15
口①口口 |----|
口口口② |----|
③⑤口口 |①②③④|
口口④口 |⑤---|
16
①口②③ |①---|
①口口③ |--②-|
③口口① |----|
③②口① |③---|
17
①⑤口口 |①②③④|
口口④口 |⑤---|
口③口口 |----|
口口口② |----|
18
口⑤口④ |①②③④|
③⑨⑥⑩ |⑤⑥⑦⑧|
⑬⑦口② |⑨⑩⑪⑫|
①⑪⑧⑫ |⑬---|
19
口口①① |①---|
口口口口 |----|
②③④⑤ |②③④⑤|
⑨⑧⑦⑥ |⑥⑦⑧⑨|
20
口②③① |--①-|
②口③① |②-③-|
口⑤⑥④ |--④-|
⑤口⑥④ |⑤-⑥-|
21
口口口口 |----|
口口口口 |----|
①②③④ |①②③④|
⑧⑦⑥⑤ |⑤⑥⑦⑧|
22
口②③① |--①-|
②口③① |②-③-|
口⑤⑥④ |--④-|
⑤口⑥④ |⑤-⑥-|
23
口①口口 |----|
口口口② |----|
③⑤口口 |①②③④|
口口④口 |⑤---|
24
①口②③ |①---|
①口口③ |--②-|
③口口① |----|
③②口① |③---|
25
口①口口 |①---|
②①②口 |--②-|
口②①② |----|
口口①口 |----|
26
①①⑧② |①-②-|
⑤⑤⑧② |③-④-|
③③④⑥ |⑤-⑥-|
⑦⑦④⑥ |⑦-⑧-|
27
②⑥⑨③ |①---|
④口口① |----|
①口⑤⑦ |②③④⑤|
⑧口口口 |⑥⑦⑧⑨|
28
口口口口 |①---|
口④③② |②③④-|
口口口口
口①①口

口口口口
口口口口
⑤⑥⑦口 |⑤⑥⑦-|
口⑩⑨⑧ |⑧⑨⑩-|
29
①口口① |①---|
④口口口 |②③④-|
③口口口
②口口口

⑪口⑩口
口⑩口⑦
口⑨口⑥ |⑤⑥⑦-|
口⑧口⑤ |⑧⑨⑩⑪|
30
口⑧口① |①---|
⑤口②⑨ |②③④-|
⑥⑩③口 |⑤⑥⑦-|
⑦口④⑪ |⑧⑨⑩⑪|
31
口口口口 |①---|
②③④口 |②③④-|
口口口口
口①口口

⑤⑪⑫口
口口口口
⑦口⑩⑥ |⑤⑥⑦⑧|
口⑨口⑧ |⑨⑩⑪⑫|
32
口口口① |①---|
口④③② |②③④-|
⑤⑥⑦口 |⑤⑥⑦-|
口⑩⑨⑧ |⑧⑨⑩-|
33
口①①口 |①---|
②③④口 |②③④-|
口⑦⑥⑤ |⑤⑥⑦-|
⑧⑨⑩口 |⑧⑨⑩-|
34
①①①① |①---|
口②③④ |②---|
口口口口 |③---|
口口口口 |④---|
35
①①①① |①---|
⑥口口口 |②---|
⑤②③④ |③---|
口口口口 |④-⑤⑥|
36
①①①① |①---|
口口口口 |②---|
口口口口 |③---|
口②③④ |④---|
37
口①②⑧ |①-②-|
口③④口 |③-④-|
口⑤⑥口 |⑤-⑥-|
口⑦口口 |⑦-⑧-|
38
口口口口 |----|
①②③④ |①②③④|
⑧⑦⑥⑤ |⑤⑥⑦⑧|
⑨⑩口口 |⑨⑩--|
39
⑤口①⑤ |--①-|
④②口④ |②-③-|
口口③口 |④-⑤-|
口口口口 |----|
40
⑦⑧⑨③ |①---|
④⑤⑥③ |②-③-|
②②②② |④⑤⑥-|
①①①① |⑦⑧⑨-|
41
口口口口 |----|
口①口口 |----|
口⑤④⑧ |①②③④|
⑦③②⑥ |⑤⑥⑦⑧|
42
①②③口 |①②③-|
④⑤⑥口 |④⑤⑥-|
⑦⑧⑨⑩ |⑦⑧⑨⑩|
⑭⑬⑫⑪ |⑪⑫⑬⑭|
43
⑤①①⑤ |①-②-|
口②③④ |③-④-|
⑥⑦⑦⑥ |⑤---|
口口口口 |⑥---⑦-|
44
④⑤⑥口 |--①---|
②口③口 |②-③-|
⑦⑧⑨口 |④⑤⑥-|
①①①① |⑦⑧⑨-|
45
口口口口 |①---|
口口口① |----|
口口口① |②---|
口②②口 |----|
46
①①①① |①---|
口口口口 |--②-|
口②②口
口口口口

⑥⑦⑧口
③④⑤口
口口口口 |③④⑤-|
口口口口 |⑥⑦⑧-|
47
⑬⑭⑮⑯ |①②③④|
⑨⑩⑪⑫ |⑤⑥⑦⑧|
⑤⑥⑦⑧ |⑨⑩⑪⑫|
①②③④ |⑬⑭⑮⑯|
48
口⑨⑨口 |①②③④|
口⑩⑩口 |⑤⑥⑦⑧|
⑧⑦⑥⑤ |--⑨-|
①②③④ |--⑩-|
49
口口口口 |--①-|
口⑤口④ |--②-|
③①①口 |③-④-|
口口口② |--⑤-|
50
口口①口 |--①-|
②口⑦口 |②-③-|
⑥口③口 |④-⑤-|
④口⑤口 |⑥-⑦-|
51
①口②口 |①-②-|
口③口④ |③---|
口③口④ |--④-|
口口口口 |----|
52
口②②口 |①---|
口④④口 |②---|
③口口③ |③---|
①口口① |④---|
53
①口口① |①---|
口口口口 |----|
口口口口 |----|
口口口口 |----|
54
④③②口 |①---|
口④③② |②---|
①①①① |③---|
口口口口 |④---|
55
口②②口 |①---|
口口口口 |②---|
口口口口
①①①①

④口口③
⑩⑥⑤⑨
口口口口 |③④⑤⑥|
⑧口口⑦ |⑦⑧⑨⑩|
56
口口口口 |①---|
口口口口 |②-③-|
②①①口
口口③口

口④口口
口口口⑤
口⑥⑥口 |④-⑤-|
口口口口 |--⑥-|
57
口③口口 |----|
口口口口 |----|
①口口口 |--①-|
口口②口 |②-③-|
58
口口口① |①---|
②口口口 |--②-|
口口①口 |----|
口②口口 |----|
59
①⑦②⑧ |①-②-③-|
③⑨口口 |④-⑤-⑥-|
口口④⑩ |⑦-⑧-⑨-|
⑤⑪⑥⑫ |⑩-⑪-⑫-|
60
①⑥⑥口 |①---|
③口⑤口 |②-③-|
②①④口 |④-⑤-|
口口口口 |--⑥-|
61
口口口口 |----|
口口口口 |----|
①②③口 |--①-|
口口口口 |②-③-|
62
口②口① |①---|
口口③口 |----|
口口口① |----|
口口口口 |--②③|
63
②口口口 |①---|
④③口口 |----|
①①⑤口 |②-③-④-|
⑥口⑦口 |⑤-⑥-⑦-|
64
③④②① |①-②-|
⑥口④③ |③-④-|
①⑤⑥⑤ |⑤-⑥-|
口⑧⑧⑦ |⑦-⑧-|
65
口口②① |①-②-|
口口④③ |③-④-|
口⑧⑥⑤ |⑤-⑥-|
口⑥⑧⑦ |⑦-⑧-|
66
口口②① |①-②-|
口④④③ |③-④-|
①口⑥⑤ |⑤-⑥-|
口口⑧⑦ |⑦-⑧-|
67
①⑦②⑧ |①-②-③-|
③口④口 |④-⑤-⑥-|
⑨口⑥⑩ |⑦-⑧-⑨-|
⑤⑪口⑫ |⑩-⑪-⑫-|
68
口口口口 |①---|
②③③② |②-③-|
口口口口
口口①口

口口④⑤
口口口口
④⑤口口 |④-⑤-|
⑥⑦⑦口 |⑥-⑦-|
69
①②口口 |①-②-|
③④⑥⑧ |③-④-|
⑤⑥口口 |⑤-⑥-|
⑦⑧口⑦ |⑦-⑧-|
70
①②①口 |①-②-|
③④口口 |③-④-|
口口口口
口口口口

口口⑨口
口口口口
⑤⑥口⑧ |⑤-⑥-|
⑦⑧口口 |⑦-⑧⑨|
71
①②⑦① |①-②-|
③④⑥口 |③-④-|
口口⑧口 |⑤-⑥-|
口口⑤口 |⑦-⑧-|
72
①口口② |①-②-|
④③④① |③-④-|
①口口口
④口④①

⑦口⑥口
口口口口
⑨⑤⑧口 |⑤-⑥-|
口口口口 |⑦-⑧⑨|
73
口④口④ |①-②-|
③①②① |③-④-|
口④口④
口①口①

⑤口口口
口⑦⑧口
口口⑥口 |⑤-⑥-|
口口口⑨ |⑦-⑧⑨|
74
口④①口 |①-②-|
④口口① |③-④-|
①②口④
③①④口

口口⑧⑥
口口口⑨
⑦口⑤口 |⑤-⑥-|
口口口口 |⑦-⑧⑨|
75
①口口④ |①-②-|
②④①口 |③-④-|
口①④③ |----|
④口口① |----|
76
口①②口 |①②③④|
口③④口 |⑤⑥⑦⑧|
⑤口口⑥
⑦口口⑧

口⑮⑯口
⑬口口⑭
口⑨⑩口 |⑨⑩⑪⑫|
口⑪⑫口 |⑬⑭⑮⑯|
77
①口口② |①-②-|
⑨⑤⑥⑨ |③-④-|
③⑦⑧④ |⑤⑥⑦⑧|
口⑨⑨口 |⑨---|
78
②②④④ |①-②-|
口口口口 |③-④-|
①口口③
①口口③

⑤口口口
口⑤口⑥
口口⑥口 |----|
口口口口 |--⑤⑥|
79
口口口口 |①---|
口口口口 |----|
①口口口 |----|
口①口口 |----|


不確定度: 0

最終更新:2013年04月29日 17:07