Supernova
9mm Parabellum Bullet

BASIC

Level: 4
BPM: 193
Notes: 204

1
口口口口 |----|
口口口口 |----|
口口口口 |----|
口口口口 |----|
2
口口口口 |①---|
口①①口 |----|
口口口口 |②---|
②口口② |----|
3
口口口口 |①---|
②口口② |----|
口①①口 |②---|
口口口口 |----|
4
口①①口 |①---|
口口口口 |----|
口口口口 |②---|
口②②口 |----|
5
口口口口 |①---|
口②②口 |----|
①口口① |②---|
口口口口 |----|
6
口①①口 |①---|
口口口口 |----|
口口口口 |----|
口口口口 |----|
7
口口口口 |----|
口口口口 |----|
口口口口 |----|
口口口口 |----|
8
口口口口 |①---|
①口口① |----|
口口口口 |----|
口口口口 |----|
9
口口口口 |----|
口口口口 |----|
口口口口 |----|
口口口口 |----|
10
口口口口 |----|
口口口口 |①---|
口口口口 |----|
①口②口 |②---|
11
口口口① |----|
口口②口 |①---|
口③口口 |②---|
口口口口 |③---|
12
口口口口 |----|
口口口口 |①---|
口口口口 |----|
口②口① |②---|
13
①口口口 |----|
口②口口 |①---|
口口③口 |②---|
口口口口 |③---|
14
①口②口 |----|
口口口口 |①---|
口口口口 |----|
口口口口 |②---|
15
口口口口 |----|
口③口口 |①---|
口口②口 |②---|
口口口① |③---|
16
口②口① |----|
口口口口 |①---|
口口口口 |----|
口口口口 |②---|
17
口口口口 |----|
口口③口 |①---|
口②口口 |②---|
①口口口 |③---|
18
口口口口 |----|
②口口口 |①---|
口口口口 |----|
①口口口 |②---|
19
口口口① |----|
口口②口 |①---|
口③口口 |②---|
口口口口 |③---|
20
口口口口 |----|
口口口② |①---|
口口口口 |----|
口口口① |②---|
21
①口口口 |----|
口②口口 |①---|
口口③口 |②---|
口口口口 |③---|
22
①口口口 |----|
口口口口 |①---|
②口口口 |----|
口口口口 |②---|
23
口口口口 |----|
口③口口 |①---|
口口②口 |②---|
口口口① |③---|
24
口口口① |----|
口口口口 |①---|
口口口② |----|
口口口口 |②---|
25
口口口口 |----|
口口③③ |①---|
口②口口 |②---|
①口口口 |③---|
26
①口口口 |----|
②③口口 |①---|
口口口口 |②---|
口口口口 |③---|
27
口口口① |----|
口口口口 |①---|
口口口口 |----|
口口口口 |----|
28
口口口口 |①---|
口口口口 |②---|
口口口① |③---|
口口③② |----|
29
口口口口 |①---|
口口口口 |②---|
②③口口 |③---|
①口口口 |----|
30
口①口口 |①---|
口口②口 |②---|
口③口口 |③---|
口口口口 |----|
31
口口口口 |----|
口口口口 |①---|
①口口口 |②---|
口②口口 |----|
32
口口①口 |①---|
口②口口 |②---|
口口③口 |③---|
口口口口 |----|
33
口口口口 |----|
口口口口 |①---|
口口口① |②---|
口口②口 |----|
34
①口口口 |①---|
口②口口 |----|
口口口口 |②---|
口口口口 |----|
35
口口口口 |----|
口口口口 |①---|
口口口口 |②---|
①②口口 |----|
36
口口口① |①---|
口口②口 |----|
口口口口 |②---|
口口口口 |----|
37
口口口口 |----|
口口口口 |①---|
口口口口 |②---|
口口②① |----|
38
口口①口 |①---|
口口②口 |②---|
口口③口 |③---|
口口口口 |----|
39
口口口口 |----|
口口口口 |①---|
口②口口 |②---|
①口口口 |----|
40
口口口① |①---|
口口口② |②---|
口口口③ |③---|
口口口④ |④---|
41
口③口口 |----|
②口口口 |①---|
口①口口 |②---|
口口口口 |③---|
42
口口口口 |①---|
口口①口 |----|
口口口口 |----|
口口②口 |②---|
43
口口口① |----|
口口②口 |①---|
口③口口 |②---|
口口口口 |③---|
44
口口口口 |----|
口口口口 |①---|
口口口口 |----|
口②口① |②---|
45
①口口口 |----|
口②口口 |①---|
口口③口 |②---|
口口口口 |③---|
46
①口②口 |----|
口口口口 |①---|
口口口口 |----|
口口口口 |②---|
47
口口口口 |----|
口③口口 |①---|
口口②口 |②---|
口口口① |③---|
48
口②口① |----|
口口口口 |①---|
口口口口 |----|
口口口口 |②---|
49
口口口口 |----|
口口③口 |①---|
口②口口 |②---|
①口口口 |③---|
50
口口口口 |----|
口口口口 |①---|
口口口口 |----|
①口口② |②---|
51
口口口口 |----|
口口口口 |①---|
①口口② |----|
口口口口 |②---|
52
口口口口 |----|
口③③口 |①---|
口②②口 |②---|
口①①口 |③---|
53
口③③口 |----|
②口口② |①---|
①口口① |②---|
口口口口 |③---|
54
口口口口 |----|
口口口口 |①---|
口口口口 |----|
口②①口 |②---|
55
口口口口 |----|
①口口② |①---|
口口口口 |----|
口口口口 |②---|
56
口口口口 |①---|
口口口口 |②---|
④口口③ |③---|
②口口① |④---|
57
口③③口 |①---|
②口口① |②---|
口口口口 |③---|
口口口口 |----|
58
口口口口 |①---|
口口口口 |----|
口口口口 |②---|
②口口① |----|
59
口口口口 |①---|
口②①口 |----|
口口口口 |②---|
口口口口 |----|
60
口口口③ |①---|
口口口② |②---|
口口口① |③---|
口口口口 |----|
61
口口口口 |①---|
口③口口 |②---|
口②口口 |③---|
口①口口 |----|
62
口口口口 |①---|
口口口口 |----|
口口口口 |②---|
①口口② |----|
63
口口口口 |①---|
口①②口 |----|
口口口口 |②---|
口口口口 |----|
64
③口口口 |①---|
②口口口 |②---|
①口口口 |③---|
口口口口 |----|
65
口口口口 |①---|
口口③口 |②---|
口口②口 |③---|
口口①口 |----|
66
口口口口 |①---|
口口口口 |----|
口口口口 |②---|
②口口① |----|
67
①口口② |①---|
口口口口 |----|
口口口口 |②---|
口口口口 |----|
68
口口口口 |①---|
②口口口 |----|
口口口口 |②---|
口口①口 |----|
69
口口①口 |①---|
口口②口 |②---|
口口③口 |③---|
口口口口 |----|
70
①口口② |①---|
口口口口 |----|
口口口口 |②---|
口口口口 |----|
71
口口口口 |①---|
口口口口 |----|
口口口口 |②---|
②口口① |----|
72
口口①口 |①---|
口口口口 |----|
口口口② |②---|
口口口口 |----|
73
口口口口 |①---|
口③口口 |②---|
口②口口 |③---|
口①口口 |----|
74
口口口口 |①---|
口口口口 |----|
口口②口 |②---|
口口口① |----|
75
口口②口 |①---|
口口口① |----|
口口口口 |②---|
口口口口 |----|
76
口口口口 |①---|
口口口口 |----|
口②口口 |②---|
①口口口 |----|
77
口②口口 |①---|
①口口口 |----|
口口口口 |②---|
口口口口 |----|
78
口口口口 |①---|
口口口口 |----|
口口口② |②---|
口口①口 |----|
79
口口口② |①---|
口口①口 |----|
口口口口 |②---|
口口口口 |----|
80
口口口口 |①---|
口口口口 |----|
②口口口 |②---|
口①口口 |----|
81
②口口口 |①---|
口①口口 |----|
口口口口 |②---|
③口口口 |③---|


不确定度: 0

最終更新:2013年01月24日 03:46