Supernova
9mm Parabellum Bullet

ADVANCED

Level: 7
BPM: 193
Notes: 538

1
口口口口 |----|
口口口口 |----|
口口口口 |----|
口口口口 |----|
2
口口口口 |①---|
①口口① |----|
口①①口 |②-③-|
④口③② |④---|
3
口口口口 |①-②-|
⑥口⑤④ |③---|
①②口③ |④-⑤-|
口口口口 |⑥---|
4
①②⑥③ |①-②-|
口口口口 |③---|
口口⑤口 |④-⑤-|
口口④口 |⑥---|
5
⑥③口⑥ |①-②-|
口口口口 |③---|
⑤②口⑤ |④-⑤-|
④①口④ |⑥---|
6
口④口口 |①-②-|
口口③口 |③-④-|
口②口口 |⑤---|
⑥口①⑤ |⑥---|
7
口口口口 |①---|
口口口口 |②---|
①③③① |③---|
口②②口 |----|
8
①口口① |①---|
口①①口 |----|
口口口口 |----|
口口口口 |----|
9
⑦口口⑦ |--①-|
口③⑥口 |②-③-|
口②⑤口 |④-⑤-|
口①④口 |⑥-⑦-|
10
口口口口 |--①-|
口口⑥口 |②-③-|
口⑤口口 |④---|
①②③④ |⑤-⑥-|
11
口③②① |--①-|
口⑥⑦口 |②-③-|
⑤口口口 |④-⑤-|
④口口口 |⑥-⑦-|
12
口口口口 |--①-|
口⑥口口 |②-③-|
口口⑤口 |④---|
④③②① |⑤-⑥-|
13
①②③口 |--①-|
口⑦⑥口 |②-③-|
口口口⑤ |④-⑤-|
口口口④ |⑥-⑦-|
14
①②③④ |--①-|
口⑤口口 |②-③-|
口口⑥口 |④---|
口口口口 |⑤-⑥-|
15
④口口口 |--①-|
⑤口口口 |②-③-|
口⑥⑦口 |④-⑤-|
口③②① |⑥-⑦-|
16
④③②① |--①-|
口口⑤口 |②-③-|
口⑥口口 |④---|
口口口口 |⑤-⑥-|
17
口口口④ |--①-|
口口口⑤ |②-③-|
口⑦⑥口 |④-⑤-|
①②③口 |⑥-⑦-|
18
口口口口 |--①-|
口口⑥口 |②-③-|
口⑤口口 |④---|
①②③④ |⑤-⑥-|
19
口③②① |--①-|
口⑥⑦口 |②-③-|
⑤口口口 |④-⑤-|
④口口口 |⑥-⑦-|
20
口口口口 |--①-|
口⑥口口 |②-③-|
口口⑤口 |④---|
④③②① |⑤-⑥-|
21
①②③口 |--①-|
口⑦⑥口 |②-③-|
口口口⑤ |④-⑤-|
口口口④ |⑥-⑦-|
22
①②③④ |--①-|
口⑤口口 |②-③-|
口口⑥口 |④---|
口口口口 |⑤-⑥-|
23
④口口口 |--①-|
⑤口口口 |②-③-|
口⑥⑦口 |④-⑤-|
口③②① |⑥-⑦-|
24
④③②① |--①-|
口口⑤口 |②-③-|
口⑥口口 |④---|
口口口口 |⑤-⑥-|
25
⑥口口⑥ |--①-|
口⑤⑤口 |②-③-|
④口口④ |④-⑤-|
①②③口 |⑥---|
26
⑤口口⑤ |①---|
口口口口 |②---|
④口口③ |③---|
②口口① |④-⑤-|
27
口口口口 |----|
口①①口 |①---|
口口口口 |----|
口口口口 |----|
28
②口口② |①---|
口口口口 |②---|
口①①口
口口口口

口口口口
④口口④
③⑤⑤③ |③---|
口口口口 |④-⑤-|
29
①口口① |----|
口②②口 |①---|
口口口口 |②---|
口口口口 |----|
30
口口口口 |①---|
④③③④ |②---|
②口口② |③---|
⑤①①⑤ |④-⑤-|
31
口口口口 |----|
口②②口 |①---|
口①①口 |②---|
口口口口 |----|
32
口口口口 |①---|
口口③口 |②---|
口②口口 |③---|
①口⑤④ |④-⑤-|
33
口②口口 |----|
口口口口 |①---|
口①口口 |②---|
口口口口 |----|
34
⑤④④⑤ |①---|
①②②① |②---|
口口口口 |③---|
口③③口 |④-⑤-|
35
口口口口 |--①-|
口①①口 |②---|
②③③② |③---|
口口口口 |----|
36
②口口② |①---|
④①①④ |②---|
③口口③ |③---|
口⑤⑤口 |④-⑤-|
37
②口口② |--①-|
口③③口 |②---|
口①①口 |③---|
口口口口 |----|
38
口口口口 |①---|
口③口口 |②---|
口口②口 |③---|
④⑤口① |④-⑤-|
39
口口口口 |----|
口口②口 |①---|
口口①口 |②---|
口口口口 |----|
40
①口口① |①---|
②口口② |②---|
③④④③ |③---|
口⑤⑤口 |④-⑤-|
41
口③口口 |--①-|
口②④① |②---|
口口④口 |③---|
口口口口 |④---|
42
口口口口 |①-②-|
口口⑦① |③-④-|
口⑥口① |⑤---|
②③④⑤ |⑥-⑦-|
43
口③②① |--①-|
口⑥⑦口 |②-③-|
⑤口口口 |④-⑤-|
④口口口 |⑥-⑦-|
44
口口口口 |--①-|
口⑥口口 |②-③-|
口口⑤口 |④---|
④③②① |⑤-⑥-|
45
①②③口 |--①-|
口⑦⑥口 |②-③-|
口口口⑤ |④-⑤-|
口口口④ |⑥-⑦-|
46
①②③④ |--①-|
口⑤口口 |②-③-|
口口⑥口 |④---|
口口口口 |⑤-⑥-|
47
④口口口 |--①-|
⑤口口口 |②-③-|
口⑥⑦口 |④-⑤-|
口③②① |⑥-⑦-|
48
④③②① |--①-|
口口⑤口 |②-③-|
口⑥口口 |④---|
口口口口 |⑤-⑥-|
49
口口口④ |--①-|
口口⑥⑤ |②-③-|
口口⑥口 |④-⑤-|
①②③口 |⑥---|
50
口口口口 |①---|
口口口口 |----|
②口口② |②---|
①③③① |③---|
51
口口口口 |①---|
口①①口 |----|
口②②口 |②---|
口口口口 |----|
52
②口口② |①---|
口③③口 |②---|
口④④口 |③-④-|
①⑤⑤① |⑤---|
53
口①①口 |----|
②口口② |①---|
③口口③ |②-③-|
④口口④ |④---|
54
口口口口 |①---|
②①①② |----|
口口口口 |②---|
口口口口 |----|
55
口③③口 |①---|
②口口② |----|
①口口① |②---|
口口口口 |③---|
56
口④④口 |①---|
口③③口 |②---|
口②②口 |③---|
口①①口 |④---|
57
③口口③ |①---|
①③③① |②---|
②口口② |③---|
④⑤口口 |④-⑤-|
58
口口⑥口 |①---|
口⑤口口 |②-③-|
口④③② |④---|
口口①口 |⑤-⑥-|
59
口口口口 |①---|
②口④① |②-③-|
口③口口 |④---|
口口口口 |----|
60
②口口② |①---|
⑤③③⑤ |②-③-|
④口口④ |④---|
①口口① |⑤---|
61
口口口口 |①---|
口③③口 |②-③-|
口②②口
口①①口

口④④口
口口口口
口口口口 |④---|
⑤⑥口口 |⑤-⑥-|
62
口口口口 |①---|
⑤口口口 |②-③-|
口④③② |④---|
⑥口①口 |⑤-⑥-|
63
口④口③ |①---|
口口口口 |②-③-|
口口口② |④---|
口口①口 |----|
64
②口口② |①---|
⑤③③⑤ |②-③-|
④口口④ |④---|
①口口① |⑤---|
65
口④④口 |①---|
口③③口 |②-③-|
口②②口 |④---|
①口口① |----|
66
④⑤④⑤ |①---|
口③口③ |②-③-|
②口②口 |④---|
①①①① |⑤---|
67
④口④口 |①---|
口③口③ |②-③-|
②口②口 |④---|
①①①① |----|
68
⑤④④⑤ |①---|
口③③口 |②-③-|
口②②口 |④---|
①①①① |⑤---|
69
口③③口 |①---|
口②②口 |②---|
①口口① |③---|
口口口口 |----|
70
④⑤④⑤ |①---|
口③口③ |②-③-|
②口②口 |④---|
①①①① |⑤---|
71
④口④口 |①---|
口③口③ |②-③-|
②口②口 |④---|
①①①① |----|
72
⑤④④⑤ |①---|
口③③口 |②-③-|
口②②口 |④---|
①口口① |⑤---|
73
口③③口 |①---|
口②②口 |②---|
①口口① |③---|
口口口口 |----|
74
口口口① |①---|
②口口口 |②---|
⑤口口③ |③---|
口④口口 |④-⑤-|
75
口口口② |--①-|
③口①口 |②---|
口口口口 |③---|
口口④口 |④---|
76
①口口口 |①---|
口口口② |②---|
③口口⑤ |③---|
口口④口 |④-⑤-|
77
②口口口 |--①-|
口①口③ |②---|
口口口口 |③---|
口④口口 |④---|
78
口口口① |①---|
②口口口 |②---|
⑤口口③ |③---|
口④口口 |④-⑤-|
79
口③口② |--①-|
口口①口 |②---|
口口口口 |③---|
口口④口 |④---|
80
①口口口 |①---|
口口口② |②---|
③口口⑤ |③---|
口口口④ |④-⑤-|
81
②口口口 |--①-|
口①③口 |②---|
口口口口 |③---|
④口口④ |④---|


不确定度: 0

最終更新:2013年01月24日 03:45