大都会交響楽
PIZZICATO FIVE

BASIC

Level: 2
BPM: 171
Notes: 203

1
口口口口 |----|
口口口口 |----|
口口口口 |----|
口口口口 |----|
2
口口口口 |①---|
口①口口 |----|
口②口口 |②---|
口口口口 |----|
3
口口口口 |①---|
口口①口 |----|
口口②口 |②---|
口口口口 |----|
4
口①②口 |①---|
口口口口 |----|
口口口口 |②---|
口口口口 |----|
5
口口口口 |①---|
口②②口 |②---|
口①①口 |----|
口口口口 |----|
6
口口口口 |①---|
口口口口 |----|
口口口口 |----|
①口口① |----|
7
口口口口 |①---|
口口口口 |----|
①口口① |----|
口口口口 |----|
8
口口口口 |①---|
①口口① |----|
口口口口 |----|
口口口口 |----|
9
口口口口 |①---|
口①②口 |②---|
口③④口 |③---|
口口口口 |④---|
10
口①①口 |①---|
口口口口 |----|
口口口口 |----|
口口口口 |----|
11
口口口口 |①---|
口①口口 |----|
口口口口 |②---|
口②口口 |----|
12
口口口口 |①---|
口口②口 |----|
口口口口 |②---|
口口①口 |----|
13
①①②② |①---|
口口口口 |----|
口口口口 |②---|
口口口口 |----|
14
口口口口 |①---|
口①①口 |----|
口口口口 |----|
口口口口 |----|
15
①口口口 |①---|
口口口口 |----|
②口口口 |②---|
口口口口 |----|
16
口②口口 |①---|
口口口口 |----|
口①口口 |②---|
口口口口 |----|
17
口口口① |①---|
口口口口 |----|
口口口② |②---|
口口口口 |----|
18
口②②口 |①---|
口口口口 |----|
口①①口 |②---|
口口口口 |----|
19
①口口口 |①---|
口口口口 |----|
②口口口 |②---|
口口口口 |----|
20
口口②口 |①---|
口口口口 |----|
口口①口 |②---|
口口口口 |----|
21
口口口① |①---|
口口口口 |----|
口口口② |②---|
口口口口 |----|
22
口②②口 |①---|
口口口口 |----|
口①①口 |②---|
口口口口 |----|
23
口口口口 |①---|
①口口口 |----|
②口口口 |②---|
口口口口 |----|
24
口口口口 |①---|
口口②口 |----|
口口①口 |②---|
口口口口 |----|
25
口口口口 |①---|
口口口① |----|
口口口② |②---|
口口口口 |----|
26
口①①口 |①---|
口②②口 |----|
口口口口 |②---|
口口口口 |----|
27
口口口口 |①---|
口口口① |----|
口口口口 |②---|
口口口② |----|
28
口口口口 |①---|
口①口口 |----|
口口口口 |②---|
口②口口 |----|
29
口口口口 |①---|
口①①口 |----|
口②②口 |②---|
口口口口 |----|
30
口口口口 |①---|
②口口② |----|
①口口① |②---|
口口口口 |----|
31
①口口口 |①---|
口口口口 |----|
②口口口 |②---|
口口口口 |----|
32
口口口口 |①---|
口口口口 |----|
口②②口 |②---|
口①①口 |----|
33
口口口① |①---|
口口口口 |----|
口口口② |②---|
口口口口 |----|
34
口口口口 |①---|
口①②口 |----|
口①②口 |②---|
口口口口 |----|
35
①口口口 |①---|
口口口口 |----|
②口口口 |②---|
口口口口 |----|
36
口②②口 |①---|
口口口口 |----|
口①①口 |②---|
口口口口 |----|
37
口口口① |①---|
口口口口 |----|
口口口② |②---|
口口口口 |----|
38
口口②口 |①---|
口口②口 |----|
口①口口 |②---|
口①口口 |----|
39
口口口口 |①---|
①口口口 |----|
②口口口 |②---|
口口口口 |----|
40
口口口口 |①---|
口②②口 |----|
口口口口 |②---|
口①①口 |----|
41
口口口口 |①---|
口口口① |----|
口口口② |②---|
口口口口 |----|
42
口①①口 |①---|
口口口口 |----|
口②②口 |②---|
口口口口 |----|
43
口口口口 |①---|
口口口① |----|
口口口口 |②---|
口口口② |----|
44
口口口口 |①---|
口②口口 |----|
口口口口 |②---|
口①口口 |----|
45
口口口口 |①---|
口②②口 |----|
口①①口 |②---|
口口口口 |----|
46
口口口口 |----|
口口口口 |----|
口口口口 |----|
口口口口 |----|
47
口口口口 |----|
①口口口 |----|
口口口口 |①---|
口口口口 |----|
48
口口口口 |①---|
口①口口 |----|
口②口口 |②---|
口口口口 |----|
49
口口口口 |①---|
口口①口 |----|
口口②口 |②---|
口口口口 |----|
50
口口口口 |①---|
口口口口 |----|
口口口① |----|
口口口口 |----|
51
口口口口 |----|
口口口① |----|
口口口口 |①---|
口口口口 |----|
52
口口口口 |①---|
口口①口 |----|
口口②口 |②---|
口口口口 |----|
53
口口口口 |①---|
口口口口 |----|
②①口口 |②---|
口口口口 |----|
54
口口口口 |----|
口口口口 |----|
口口口口 |----|
口口口口 |----|
55
口②①口 |①---|
口口口口 |----|
口口口口 |②---|
口口口口 |----|
56
口口口口 |①---|
口口口口 |----|
①①②② |②---|
口口口口 |----|
57
口口口口 |①---|
口②①口 |----|
口口口口 |②---|
口口口口 |----|
58
口口口口 |①---|
口口口口 |----|
口口口口 |②---|
①①②② |----|
59
口口口口 |----|
口口口口 |----|
口口口口 |①---|
口①①口 |----|
60
口口口口 |①---|
口②②口 |----|
口①①口 |②---|
口口口口 |----|
61
①口口① |①---|
口口口口 |----|
口口口口 |----|
口口口口 |----|
62
口口口口 |①---|
口口口口 |----|
①口口① |----|
口口口口 |----|
63
口口口口 |①---|
口口口口 |----|
②口口② |②---|
①口口① |----|
64
②口口② |①---|
①口口① |----|
口口口口 |②---|
口口口口 |----|
65
口口①口 |①---|
口口口口 |----|
口口②口 |②---|
口口口口 |----|
66
口口口口 |①---|
口口口口 |----|
①①口口 |②---|
②②口口 |----|
67
①口口口 |①---|
口口口口 |----|
②口口口 |②---|
口口口口 |----|
68
口口口口 |①---|
口口口口 |----|
口口①① |②---|
口口②② |----|
69
口口①口 |①---|
口口口口 |----|
口口②口 |②---|
口口口口 |----|
70
口口口口 |①---|
口口口口 |----|
①①口口 |②---|
②②口口 |----|
71
口①口口 |①---|
口口口口 |----|
口②口口 |②---|
口口口口 |----|
72
口口口口 |①---|
口口口口 |----|
口口①① |②---|
口口②② |----|
73
①口②口 |①---|
口口口口 |----|
口口口口 |②---|
口口口口 |----|
74
口口口口 |①---|
口口口口 |----|
②①口口 |②---|
②①口口 |----|
75
口②口① |①---|
口口口口 |----|
口口口口 |②---|
口口口口 |----|
76
口口口口 |①---|
口口口口 |----|
口口①② |②---|
口口①② |----|
77
①口②口 |①---|
口口口口 |----|
口口口口 |②---|
口口口口 |----|
78
口口口口 |①---|
口口口口 |----|
②口①口 |②---|
口口口口 |----|
79
口②②口 |①---|
口口口口 |----|
口①①口 |②---|
口口口口 |----|


不确定度: 0

最終更新:2013年01月24日 03:43