Kick It Out
ブンブンサテライツ

BASIC

Level: 3
BPM: 143
Notes: 267

1
口口口口 |----|
口口口口 |----|
口口口口 |----|
口口口口 |----|
2
口①①口 |①---|
②③④口 |②---|
口口口口 |③---|
口口口口 |④---|
3
口口口口 |①---|
口口口① |----|
口②②口 |②---|
口口口口 |----|
4
口口口口 |①---|
口口口口 |②---|
①口口① |③---|
②③④口 |④---|
5
口口口口 |①---|
口口口口 |----|
口口口口 |----|
口口口① |----|
6
口口口口 |①---|
②③④口 |②---|
口①①口 |③---|
口口口口 |④---|
7
口②②口 |①---|
口口口① |----|
口口口口 |②---|
口口口口 |----|
8
①口口① |①---|
②③④口 |②---|
口口口口 |③---|
口口口口 |④---|
9
口口口口 |①---|
口口口① |----|
口口口口 |----|
口口口口 |----|
10
口口口口 |①---|
口口口④ |②---|
口①①③ |③---|
口口口② |④---|
11
口口口① |①---|
口②③口 |②---|
口口④口 |③---|
口口口口 |④---|
12
口口口口 |①---|
④口口口 |②---|
③①口口 |③---|
②口口口 |④---|
13
①口口口 |①---|
口②③口 |②---|
口口④口 |③---|
口口口口 |④---|
14
口口口口 |①---|
口口口④ |②---|
口①口③ |③---|
口口口② |④---|
15
口口口① |①---|
口②③口 |②---|
口口④口 |③---|
口口口口 |④---|
16
③口口② |①---|
口口口④ |②---|
口①口口 |③---|
口口口口 |④---|
17
口口口口 |①---|
①口口口 |②---|
③口口② |③---|
口口口④ |④---|
18
②③④口 |①---|
口口口口 |②---|
口口口口 |③---|
①口口口 |④---|
19
口口口① |①---|
口口口② |②---|
口口口③ |③---|
口口口④ |④---|
20
口口口口 |①---|
口口口口 |②---|
④④口口 |③---|
③②①口 |④---|
21
口①②口 |①---|
口③④口 |②---|
口口口口 |③---|
口口口口 |④---|
22
口口口口 |①---|
口口口口 |②---|
口①②口 |③---|
口③④口 |④---|
23
口口口口 |①---|
口口口口 |②---|
③口口④ |③---|
①口口② |④---|
24
③口口④ |①---|
①口口② |②---|
口口口口 |③---|
口口口口 |④---|
25
口①③口 |①---|
口②④口 |②---|
口口口口 |③---|
口口口口 |④---|
26
口口口口 |①---|
口口口口 |②---|
口①③口 |③---|
口②④口 |④---|
27
④口口口 |①---|
③口口口 |②---|
②口口口 |③---|
①口口口 |④---|
28
口①②③ |①---|
口口口④ |②---|
口口口口 |③---|
口口口口 |④---|
29
口口口口 |①---|
口口口口 |②---|
口④④① |③---|
口口③② |④---|
30
口口口口 |①---|
①②③④ |②---|
口口口口 |③---|
口口口口 |④---|
31
口①②口 |①---|
口口口③ |②---|
口口口④ |③---|
口口口口 |④---|
32
口口口口 |①---|
④口口口 |②---|
③口口口 |③---|
口②①口 |④---|
33
口口口口 |①---|
口①②口 |②---|
口④③口 |③---|
口口口口 |④---|
34
口口口口 |①---|
口①②③ |②---|
口口口④ |③---|
口口口口 |④---|
35
口口口口 |①---|
④口口口 |②---|
③口口口 |③---|
口②①口 |④---|
36
口①②口 |①---|
口口口③ |②---|
口口口④ |③---|
口口口口 |④---|
37
口①①口 |①---|
②③④口 |②---|
口口口口 |③---|
口口口口 |④---|
38
口口口口 |①---|
口口口① |----|
口②②口 |②---|
口口口口 |----|
39
口口口口 |①---|
口口口口 |②---|
①口口① |③---|
②③④口 |④---|
40
口口口口 |①---|
口口口口 |----|
口口口口 |----|
口口口① |----|
41
口口口口 |①---|
②③④口 |②---|
口①①口 |③---|
口口口口 |④---|
42
口②②口 |①---|
口口口① |----|
口口口口 |②---|
口口口口 |----|
43
①口口① |①---|
②③④口 |②---|
口口口口 |③---|
口口口口 |④---|
44
口口口口 |①---|
口口口① |----|
口口口口 |----|
口口口口 |----|
45
口口口口 |①---|
口口口④ |②---|
口①①③ |③---|
口口口② |④---|
46
口口口① |①---|
口②③口 |②---|
口口④口 |③---|
口口口口 |④---|
47
口口口口 |①---|
④口口口 |②---|
③①口口 |③---|
②口口口 |④---|
48
①口口口 |①---|
口②③口 |②---|
口口④口 |③---|
口口口口 |④---|
49
口口口口 |①---|
口口口④ |②---|
口①口③ |③---|
口口口② |④---|
50
口口口① |①---|
口②③口 |②---|
口口④口 |③---|
口口口口 |④---|
51
③口口② |①---|
口口口④ |②---|
口①口口 |③---|
口口口口 |④---|
52
口口口口 |①---|
①口口口 |②---|
③口口② |③---|
口④④口 |④---|
53
口①②口 |①---|
口③④口 |②---|
口口口口 |③---|
口口口口 |④---|
54
口口口口 |①---|
口口口口 |②---|
口①②口 |③---|
口③④口 |④---|
55
口口口口 |①---|
口口口口 |②---|
③口口④ |③---|
①口口② |④---|
56
③口口④ |①---|
①口口② |②---|
口口口口 |③---|
口口口口 |④---|
57
口①③口 |①---|
口②④口 |②---|
口口口口 |③---|
口口口口 |④---|
58
口口口口 |①---|
口口口口 |②---|
口①③口 |③---|
口②④口 |④---|
59
口口口口 |①---|
口口口口 |②---|
口口④③ |③---|
①②口口 |④---|
60
口口④③ |①---|
①②口口 |②---|
口口口口 |③---|
口口口口 |④---|
61
口口口口 |①---|
口①②口 |②---|
口④③口 |③---|
口口口口 |④---|
62
③④口口 |①---|
②口口口 |②---|
①口口口 |③---|
口口口口 |④---|
63
口口①② |①---|
口口口③ |②---|
口口口④ |③---|
口口口口 |④---|
64
口口口口 |①---|
口口口口 |②---|
口口口口 |③---|
④③②① |④---|
65
口口口口 |①---|
口口口口 |②---|
③①②④ |③---|
口口口口 |④---|
66
口口口口 |①---|
③①②④ |②---|
口口口口 |③---|
口口口口 |④---|
67
③①②④ |①---|
口口口口 |②---|
口口口口 |③---|
口口口口 |④---|
68
口口口口 |①---|
口①口口 |②---|
口口②口 |③---|
口③④口 |④---|
69
口①①口 |①---|
口口口口 |----|
口口口口 |----|
口口口口 |----|


不确定度: 0

最終更新:2013年01月17日 23:33