ナナホシ
S-C-U

EXTREME

Level: 9
BPM: 166
Notes: 582

1
口口口口 |----|
口口口口 |----|
口口口口 |----|
口口口口 |----|
2
口口口口 |①---|
①口口② |--②-|
③口口口 |----|
口口口口 |③---|
3
口口③口 |--①-|
口口口口 |----|
口口口① |②---|
口口②口 |③---|
4
②口口① |①---|
口口口口 |--②-|
口口口口 |----|
口口口③ |③---|
5
口③口口 |--①-|
口口口口 |----|
口口口口 |②---|
①②口口 |③---|
6
口口口口 |①-②-|
①②④③ |--③-|
⑤⑥口口 |④---|
口口口口 |⑤-⑥-|
7
口口④口 |--①-|
口口口口 |②---|
口口②① |③---|
口口③口 |④---|
8
③口口① |①-②-|
口④②口 |--③-|
口口⑥口 |④---|
口口口⑤ |⑤-⑥-|
9
口④口口 |--①-|
口口口口 |②---|
口②口口 |③---|
①③口口 |④---|
10
口口口口 |①②-③|
口口③④ |④-⑤⑥|
口口①②
口口⑤⑥

口⑩⑦⑧
口口口口
口口⑨口 |-⑦⑧-|
口口口口 |⑨-⑩-|
11
口口口口 |①②-③|
③④口口 |④-⑤⑥|
①②口口
⑤⑥口口

⑦⑧⑩口
口口口口
⑨口口口 |-⑦⑧-|
口口口口 |⑨-⑩-|
12
口口⑫⑪ |①-②③|
⑨⑧口① |④-⑤⑥|
口⑦④⑩ |⑦⑧⑨-|
⑤⑥③② |⑩-⑪⑫|
13
⑧⑨口口 |①-②③|
⑪⑩①口 |④-⑤⑥|
⑫⑦④口 |⑦-⑧⑨|
⑤⑥③② |⑩⑪⑫-|
14
口口口口 |①②-③|
口口③④ |④-⑤⑥|
口口①②
口口⑤⑥

口⑩⑦⑧
口口口口
口口⑨口 |-⑦⑧-|
口口口口 |⑨-⑩-|
15
口口口口 |①②-③|
③④口口 |④-⑤⑥|
①②口口
⑤⑥口口

⑦⑧⑩口
口口口口
⑨口口口 |-⑦⑧-|
口口口口 |⑨-⑩-|
16
口口⑫⑪ |①-②③|
⑨⑧口① |④-⑤⑥|
口⑦④⑩ |⑦⑧⑨-|
⑤⑥③② |⑩-⑪⑫|
17
⑧⑨口口 |①-②③|
⑪⑩①口 |④-⑤⑥|
⑫⑦④口 |⑦-⑧⑨|
⑤⑥③② |⑩⑪⑫-|
18
口口口口 |--①-|
口口口口 |②-③-|
口口口③
口口①②

口口⑤口
口口口口
口口④口 |④---|
口口⑥口 |⑤-⑥-|
19
口口口口 |①-②-|
口口口口 |③---|
口口③②
口口口①

口口④口
口口口口
口口口⑦ |④-⑤-|
口口⑤⑥ |⑥-⑦-|
20
口口⑤④ |①-②-|
口口②③ |③-④-|
口口①口 |⑤---|
口口⑥⑦ |⑥-⑦-|
21
⑥⑥口口 |--①-|
口口④③ |②-③-|
口口①② |④-⑤-|
⑤⑤口口 |⑥---|
22
口口口口 |--①-|
口口口口 |②-③-|
口口口③
口口①②

口口⑤口
口口口口
口口④口 |④---|
口口⑥口 |⑤-⑥-|
23
口口④⑤ |①-②-|
口口⑦⑥ |③---|
口口③② |④-⑤-|
口口口① |⑥-⑦-|
24
口口②③ |①---|
口口口口 |②-③-|
口口口口
口口①口

口口口口
口口⑤④
口口口口 |④-⑤-|
口口⑥口 |--⑥-|
25
口⑤②① |--①-|
⑥口③④ |②-③-|
口⑦口口 |④-⑤⑥|
口口口口 |⑦---|
26
口口口口 |--①-|
口口口口 |②-③-|
口口口③
口口①②

口口⑤口
口口口口
口口④口 |④---|
口口⑥口 |⑤-⑥-|
27
口口口口 |①-②-|
口口口口 |③---|
口口③②
口口口①

口口④口
口口口口
口口口⑦ |④-⑤-|
口口⑤⑥ |⑥-⑦-|
28
口口⑤④ |①-②-|
口口②③ |③-④-|
口口①口 |⑤---|
口口⑥⑦ |⑥-⑦-|
29
⑥⑥口口 |--①-|
⑦口④③ |②-③-|
口⑧①② |④-⑤-|
⑤⑤口口 |⑥-⑦⑧|
30
口口口口 |--①-|
口口口口 |②-③-|
口口口③
口口①②

口口⑤口
口口口口
口口④口 |④---|
口口⑥口 |⑤-⑥-|
31
口口④⑤ |①-②-|
口口⑦⑥ |③---|
口口③② |④-⑤-|
口口口① |⑥-⑦-|
32
口口②③ |①---|
口口口口 |②-③-|
口口口口
口口①口

口口口口
口口⑤④
口口口口 |④-⑤-|
口口⑥口 |--⑥-|
33
口口②① |--①-|
口⑦③④ |②-③-|
⑥口口⑨ |④-⑤⑥|
口⑤⑧口 |⑦-⑧⑨|
34
口口口口 |①-②-|
②口④③ |③④-⑤|
⑤口①口
口口口口

⑥口口口
口口口口
口口⑧⑦ |-⑥-⑦|
⑨口口口 |⑧-⑨-|
35
口口口口 |①-②-|
①口④③ |③④-⑤|
⑤②口⑦ |----|
口口⑥口 |--⑥⑦|
36
口口口口 |①-②-|
②口④③ |③④-⑤|
⑤口①口
口口口口

⑥口口口
口口口口
口口⑧⑦ |-⑥-⑦|
⑨口口口 |⑧-⑨-|
37
口口口口 |①-②-|
①口④③ |③④-⑤|
⑤②口⑦ |----|
口口⑥口 |--⑥⑦|
38
②口口口 |①--②|
⑥⑤口口 |--③-|
③④①⑧ |④-⑤-|
口口⑦口 |⑥-⑦⑧|
39
②口口口 |①--②|
⑥⑤口口 |--③-|
③④①⑧ |④-⑤-|
口口⑦口 |⑥-⑦⑧|
40
②口口⑤ |①--②|
⑥⑦⑧⑨ |--③-|
③④①口 |④-⑤⑥|
口口口口 |⑦⑧⑨-|
41
口②②口 |①-②-|
口口口口 |--③-|
口口口口
③①①③

④口口④
口口口口
口⑥⑥口 |--④-|
口⑤⑤口 |--⑤⑥|
42
口②③口 |①---|
①④⑤① |----|
口口口口 |----|
口口口口 |②③④⑤|
43
⑤口口③ |①-②③|
④口口② |-④⑤-|
①⑩⑧口 |⑥-⑦⑧|
⑥⑨⑦口 |-⑨⑩-|
44
⑦⑤③⑥ |①-②③|
口④②口 |-④⑤-|
口口口① |⑥-⑦-|
⑨口口⑧ |⑧-⑨-|
45
口⑥口口 |①-②③|
⑤⑩⑧③ |-④⑤-|
④⑨⑦② |⑥-⑦⑧|
口①口口 |-⑨⑩-|
46
⑦口⑧① |①-②③|
⑥⑨口口 |④⑤⑥⑦|
③口⑩⑤ |⑧-⑨-|
②⑪口④ |⑩-⑪-|
47
口⑪⑥口 |①②③④|
⑦口⑤⑨ |-⑤⑥-|
④⑧⑩② |⑦⑧-⑨|
③口口① |⑩-⑪-|
48
口⑪⑥口 |①②③④|
⑦口⑤⑨ |-⑤⑥-|
④⑧⑩② |⑦⑧-⑨|
③口口① |⑩-⑪-|
49
口⑫⑬① |①-②③|
⑥口⑪口 |④⑤⑥-|
④⑤⑨⑩ |⑦⑧⑨⑩|
②③⑦⑧ |⑪-⑫⑬|
50
口口口口 |①--②|
口①口口 |--③-|
口口口口
②口口③

口⑥⑦口
口⑧⑨口
口④⑤口 |④-⑤-|
口口口口 |⑥⑦⑧⑨|
51
⑤口口③ |①-②③|
④口口② |-④⑤-|
①⑩⑧口 |⑥-⑦⑧|
⑥⑨⑦口 |-⑨⑩-|
52
⑦⑤③⑥ |①-②③|
口④②口 |-④⑤-|
口口口① |⑥-⑦-|
⑨口口⑧ |⑧-⑨-|
53
口⑥口口 |①-②③|
⑤⑩⑧③ |-④⑤-|
④⑨⑦② |⑥-⑦⑧|
口①口口 |-⑨⑩-|
54
口口⑦① |①②③④|
⑥⑧口② |-⑤⑥-|
③口⑨⑤ |⑦-⑧-|
④⑩口口 |⑨-⑩-|
55
口⑪⑥口 |①②③④|
⑦口⑤⑨ |-⑤⑥-|
④⑧⑩② |⑦⑧-⑨|
③口口① |⑩-⑪-|
56
口⑪⑥口 |①②③④|
⑦口⑤⑨ |-⑤⑥-|
④⑧⑩② |⑦⑧-⑨|
③口口① |⑩-⑪-|
57
口⑫⑬① |①-②③|
⑥口⑪口 |④⑤⑥-|
④⑤⑨⑩ |⑦⑧⑨⑩|
②③⑦⑧ |⑪-⑫⑬|
58
口口口口 |①--②|
口①口① |--③-|
口口口口
②②③③

④⑤口④
⑥⑦口口
⑧⑨口口 |④-⑤-|
口口口口 |⑥⑦⑧⑨|
59
口口口口 |①②-③|
口口③④ |④-⑤⑥|
口口①②
口口⑤⑥

口⑩⑦⑧
口口口口
口口⑨口 |-⑦⑧-|
口口口口 |⑨-⑩-|
60
口口口口 |①②-③|
③④口口 |④-⑤⑥|
①②口口
⑤⑥口口

⑦⑧⑩口
口口口口
⑨口口口 |-⑦⑧-|
口口口口 |⑨-⑩-|
61
口口⑫⑪ |①-②③|
⑨⑧口① |④-⑤⑥|
口⑦④⑩ |⑦⑧⑨-|
⑤⑥③② |⑩-⑪⑫|
62
⑧⑨口口 |①-②③|
⑪⑩①口 |④-⑤⑥|
⑫⑦④口 |⑦-⑧⑨|
⑤⑥③② |⑩⑪⑫-|
63
口口口口 |①②-③|
口口③④ |④-⑤⑥|
口口①②
口口⑤⑥

口⑩⑦⑧
口口口口
口口⑨口 |-⑦⑧-|
口口口口 |⑨-⑩-|
64
口口口口 |①②-③|
③④口口 |④-⑤⑥|
①②口口
⑤⑥口口

⑦⑧⑩口
口口口口
⑨口口口 |-⑦⑧-|
口口口口 |⑨-⑩-|
65
口口⑫⑪ |①-②③|
⑨⑧口① |④-⑤⑥|
口⑦④⑩ |⑦⑧⑨-|
⑤⑥③② |⑩-⑪⑫|
66
⑧⑨口口 |①-②③|
⑪⑩①口 |④-⑤⑥|
⑫⑦④口 |⑦-⑧⑨|
⑤⑥③② |⑩⑪⑫-|
67
④④②② |①-②-|
口⑥⑥口 |--③-|
口⑤⑤口 |④---|
③③①① |⑤-⑥-|
68
②口口② |--①-|
口口口口 |②---|
①口口① |----|
口口口口 |----|


不确定度: 0

最終更新:2012年11月07日 23:23