SAMURAI GROOVE
DUFF

BASIC

Level: 2
BPM: 128
Notes: 166

1
口口口口 |----|
口口口口 |----|
口口口口 |----|
口口口口 |----|
2
口口口口 |①---|
口①②口 |----|
口口口口 |②---|
口口口口 |----|
3
口口口口 |①---|
口口口口 |----|
口①②口 |②---|
口口口口 |----|
4
口口口口 |①---|
口①②口 |----|
口口口口 |②---|
口口口口 |----|
5
口口口口 |①---|
口口口口 |----|
口①②口 |②---|
口口口口 |----|
6
口口口口 |①---|
口口口口 |----|
口②②口 |②---|
口①①口 |----|
7
口②②口 |①---|
口①①口 |----|
口口口口 |②---|
口口口口 |----|
8
①口口① |①---|
②口口② |----|
口口口口 |②---|
口口口口 |----|
9
口口口口 |①---|
口口口口 |----|
①口口① |②---|
②口口② |----|
10
口口口口 |①---|
口口口口 |②---|
口②①口 |----|
口口口口 |----|
11
口口口口 |①---|
口②①口 |②---|
口口口口 |----|
口口口口 |----|
12
③②①口 |①---|
④口口口 |②---|
口口口口 |③---|
口口口口 |④---|
13
口口口口 |①---|
口口口口 |----|
①口口口 |----|
口口口口 |----|
14
口口口口 |①---|
口口口口 |②---|
口①②口 |----|
口口口口 |----|
15
口口口口 |①---|
口①②口 |②---|
口口口口 |----|
口口口口 |----|
16
口①②③ |①---|
口口口④ |②---|
口口口口 |③---|
口口口口 |④---|
17
口口口口 |①---|
口口口口 |----|
口口口① |----|
口口口口 |----|
18
口口口口 |①---|
口②③口 |----|
口①①口 |②---|
口口口口 |③---|
19
口①①口 |①---|
口③②口 |----|
口口口口 |②---|
口口口口 |③---|
20
口口口口 |①---|
①口口口 |②---|
②③④口 |③---|
口口口口 |④---|
21
口口口口 |①---|
口③③② |②---|
口口口① |③---|
口口口口 |----|
22
口口口口 |①---|
口③②口 |----|
口①①口 |②---|
口口口口 |③---|
23
口①①口 |①---|
口②③口 |----|
口口口口 |②---|
口口口口 |③---|
24
口口口口 |①---|
口口口① |②---|
口④③② |③---|
口口口口 |④---|
25
口口口口 |①---|
②③③口 |②---|
①口口口 |③---|
口口口口 |----|
26
口②①口 |①---|
口③④口 |②---|
口口口口 |③---|
口口口口 |④---|
27
口口口口 |①---|
口口口口 |②---|
口②①口 |③---|
口③③口 |----|
28
口口④③ |①---|
口口口② |②---|
口口口① |③---|
口口口口 |④---|
29
②①口口 |①---|
③口口口 |②---|
④口口口 |③---|
口口口口 |④---|
30
口口口口 |①---|
口口口口 |②---|
口口③④ |③---|
①②口口 |④---|
31
④③口口 |①---|
口口②① |②---|
口口口口 |③---|
口口口口 |④---|
32
口口口口 |①---|
①口口口 |②---|
②③④口 |③---|
口口口口 |④---|
33
口口口口 |①---|
口③③② |②---|
口口口① |③---|
口口口口 |----|
34
口①①口 |①---|
口口口口 |----|
口口口口 |----|
口口口口 |----|
35
口口口口 |①---|
④③②① |②---|
口口口口 |③---|
口口口口 |④---|
36
口口口口 |①---|
口口口口 |----|
口①①口 |----|
口口口口 |----|
37
②口口② |①---|
①口口① |②---|
口口口口 |----|
口口口口 |----|
38
口①①口 |①---|
口口口口 |----|
口口口口 |----|
口口口口 |----|
39
口口口口 |①---|
①②③④ |②---|
口口口口 |③---|
口口口口 |④---|
40
口口口口 |①---|
口口口口 |----|
口①①口 |----|
口口口口 |----|
41
②口口② |①---|
①口口① |②---|
口口口口 |----|
口口口口 |----|
42
口①①口 |①---|
口口口口 |----|
口口口口 |----|
口口口口 |----|
43
口口口口 |①---|
口①②口 |②---|
口③④口 |③---|
口口口口 |④---|
44
口口口口 |①---|
口口口口 |----|
口口口口 |----|
口①①口 |----|
45
口口口口 |①---|
口④③口 |②---|
口②①口 |③---|
口口口口 |④---|
46
口①①口 |①---|
口口口口 |----|
口口口口 |----|
口口口口 |----|
47
口口口口 |①---|
口①②口 |②---|
口③④口 |③---|
口口口口 |④---|
48
口口口口 |①---|
口口口口 |----|
口口口口 |----|
口①①口 |----|
49
④口口④ |①---|
③口口③ |②---|
②口口② |③---|
①口口① |④---|
50
口①①口 |①---|
口口口口 |----|
口口口口 |----|
口口口口 |----|
51
口口口口 |①---|
口①①口 |----|
口口口口 |----|
口口口口 |----|
52
口口口口 |①---|
口口口口 |----|
口①①口 |----|
口口口口 |----|
53
口口口口 |①---|
口口口口 |----|
口口口口 |----|
口①①口 |----|


不确定度: 0

最終更新:2013年01月17日 23:33