天上の果て
マジックアカデミー管弦楽部×劇団レコード

EXTREME

Level: 8
BPM: 144
Notes: 514

1
①①①① |------|
口口口口 |------|
口口口口 |------|
口口口口 |①-----|
2
口口口口 |①-②-③-|
口口⑤⑤ |④---⑤-|
②口口④
口③①口

⑥⑥口口
口口口口
口⑨口口 |⑥-----|
⑧口⑦口 |⑦-⑧-⑨-|
3
④③④③ |①-----|
③②口② |------|
②③④① |②---③-|
口②口④ |--④---|
4
口口口口 |①-②-③-|
口口⑥⑥ |④-⑤-⑥-|
④⑤口③
①口②口

⑦⑦口口
口口口口
口口口⑨ |⑦-----|
口⑧⑩口 |⑧-⑨-⑩-|
5
口口口口 |①-----|
口口口口 |------|
①口口口
口口口口

口②口口
②③口③
③②口② |②-----|
口③口口 |③-----|
6
⑤⑤口口 |①-②-③-|
口口口口 |④---⑤-|
口③口④
②口①口

口口口口
口口⑥⑥
⑧口口口 |⑥-----|
口⑨⑦口 |⑦-⑧-⑨-|
7
③口②口 |①-----|
口③口② |------|
③口②① |②-----|
②口口③ |③-----|
8
口口口口 |①-②-③-|
口口④口 |④-⑤-⑥-|
⑥口③口
⑤①②口

口口口口
⑦口口口
口⑩口⑨ |⑦-----|
口口⑧口 |⑧-⑨-⑩-|
9
口口②② |①-----|
③口①④ |------|
④口口③ |②---③-|
④②口③ |--④---|
10
口③⑥口 |①-②-③-|
口⑤②口 |④-⑤-⑥-|
口①④口
口④①口

⑦口口⑦
⑩口⑨口
口⑧口口 |⑦-----|
口口口口 |⑧-⑨-⑩-|
11
口⑦⑨口 |①-②-③-|
口②口⑧ |④-⑤-⑥-|
⑧⑥③① |⑦---⑧-|
④⑨⑦⑤ |--⑨---|
12
口④口① |①-②-③-|
①③⑥口 |④-⑤-⑥-|
口⑤②④
口口口口

口口⑦口
⑩⑨口口
⑦口⑧口 |⑦-----|
口口口口 |⑧-⑨-⑩-|
13
口口口口 |①-②-③-|
口口②③ |④-⑤-⑥-|
口①⑥⑤
口口口④

⑦口口口
口口⑧口
⑦口口口 |⑦-----|
口口⑧口 |⑧-----|
14
口④①口 |①-②-③-|
口①⑥④ |④-⑤-⑥-|
口⑤②口
口③口口

口口⑨口
口⑧口口
⑩口口⑦ |⑦-----|
口口⑦口 |⑧-⑨-⑩-|
15
④口⑦⑤ |①-②-③-|
⑧⑥③① |④-⑤-⑥-|
口②⑦口 |⑦-----|
⑧口口口 |⑧-----|
16
口口口口 |①-②-③-|
口⑤②④ |④-⑤-⑥-|
①③⑥口
口④口①

口⑦口口
口口⑧口
⑩⑨口口 |⑦-----|
口口⑦口 |⑧-⑨-⑩-|
17
口口⑤④ |①-②-③-|
口①⑥口 |④-⑤-⑥-|
口口②③
口口口口

口⑦口口
口⑨口⑧
⑧口⑨口 |⑦---⑧-|
口口⑦口 |--⑨---|
18
①⑥⑫口 |①-②-③-|
⑤⑪口⑦ |④-⑤-⑥-|
⑩口⑧③ |⑦-⑧-⑨-|
口⑨④② |⑩-⑪-⑫-|
19
口⑦口① |①-②-③-|
口⑦②⑤ |④-⑤-⑥-|
⑥③⑦⑧ |⑦-----|
④口⑦口 |⑧-----|
20
口口①② |①-----|
口口③口 |--②-③-|
口口④口 |④-----|
口口口⑤ |⑤-----|
21
⑦口口口 |①-②-③-|
⑤⑥口① |④-⑤-⑥-|
③④口口 |⑦-----|
①②⑧口 |⑧-----|
22
口口口③ |①-----|
口口①④ |--②-③-|
口口⑤② |④-----|
口口口口 |⑤-----|
23
口③口口 |①---②-|
④口口口 |③-④---|
口⑤⑥口 |⑤-----|
口②口① |⑥-----|
24
口⑤口口 |①-----|
口口②口 |--②-③-|
口③⑥口 |④-----|
①口④口 |⑤---⑥-|
25
口口口口 |①-----|
口①③口 |--②-③-|
口②口口
口口口口

口口口④
口⑥口口
⑤口口口 |④-----|
口口口口 |--⑤-⑥-|
26
口口①⑤ |①-----|
口口口② |②-③-④-|
口口④⑥ |⑤-----|
口③口口 |⑥-----|
27
①②④⑦ |①-②-③-|
③⑤⑧⑩ |④-⑤-⑥-|
⑥⑨⑪口 |⑦-⑧-⑨-|
口⑫口口 |⑩-⑪-⑫-|
28
口口口口 |①-----|
口口②口 |②-③-④-|
③⑤口① |⑤-----|
口⑥④⑥ |⑥-----|
29
⑥⑧⑦口 |①-----|
②⑤③④ |②-③-④-|
①口①口 |⑤-⑥-⑦-|
口口口口 |⑧-----|
30
口口口口 |①-----|
口口②口 |②-③-④-|
口④口① |⑤-----|
③⑥⑤⑥ |⑥-----|
31
⑥④②① |①-②-③-|
⑧⑦⑤③ |④-⑤-⑥-|
①口①口 |⑦-----|
口口口口 |⑧-----|
32
口④口② |①-----|
口口口口 |②-③-④-|
口③口①
口①口口

口口⑦口
⑤口口⑧
口口口口 |⑤---⑥-|
口⑥口口 |⑦---⑧-|
33
口口口⑤ |①-----|
口⑦④口 |②-③-④-|
⑥③①口 |⑤-----|
口口②口 |--⑥-⑦-|
34
口口①② |①-----|
口⑥口③ |②-③-④-|
口口④口 |⑤---⑥-|
口⑤口⑦ |⑦-----|
35
口口口口 |①---②-|
②口②口 |--③-④-|
④①口①
③口口口

口⑤⑤⑤
口口口⑤
口口⑤⑥ |⑤-----|
口口⑤口 |⑥-----|
36
口②口口 |①-----|
①⑦③口 |②-③-④-|
⑥④口口 |⑤-----|
口口⑤口 |--⑥-⑦-|
37
①⑤口口 |①-----|
口⑥口② |--②-③-|
口口③口 |④-----|
口口口④ |--⑤-⑥-|
38
口⑥⑦⑥ |①-----|
口口口口 |②-③-④-|
⑤①⑤② |⑤---⑥-|
口④③口 |--⑦---|
39
口口口口 |①-----|
①③①口 |②-③-④-|
口④口口
口口②口

口⑤口口
口口⑦口
⑥口口口 |⑤-----|
口口口口 |--⑥-⑦-|
40
口口口① |①-----|
口③口口 |②-----|
④②④口 |③---④-|
口⑤口⑤ |--⑤---|
41
③④③④ |①---②-|
②口②口 |--③---|
口①口① |④-----|
口口口口 |------|
42
①口口口 |①---②-|
④⑤口口 |③-④-⑤-|
①口口口
口口②③

⑦口口口
口口⑥口
口⑧口口 |⑥---⑦-|
⑥口口口 |--⑧---|
43
口④②① |①-②-③-|
口口⑤③ |④-⑤-⑥-|
口口口⑥
口口口口

⑦口⑩⑪
⑩⑧口⑫
口⑪⑨口 |⑦-⑧-⑨-|
口口⑫口 |⑩-⑪-⑫-|
44
口①⑤口 |①---②-|
⑦④口⑦ |③-④-⑤-|
③⑥⑥② |⑥-----|
口口口口 |⑦-----|
45
⑤口口① |①---②-|
⑥④口⑥ |③-④-⑤-|
口②③口 |⑥-----|
口⑦⑦口 |⑦-----|
46
口⑥⑥口 |①---②-|
⑦②⑤⑦ |③-④-⑤-|
口④口① |⑥-----|
③口口口 |⑦-----|
47
①口口① |①-----|
口③口⑤ |②-③-④-|
口口④口 |⑤-----|
②口口口 |------|
48
口口口口 |①---②-|
③口口② |③-④-⑤-|
口④口口
口①⑤①

口口⑥⑥
口⑥口口
⑧口口⑧ |⑥---⑦-|
口⑦口口 |⑧-----|
49
口②⑧⑧ |①---②-|
⑧⑤③口 |③-④-⑤-|
⑥④①⑥ |⑥---⑦-|
口口⑦口 |⑧-----|
50
③口口口 |①---②-|
口④口① |③-④-⑤-|
⑧②⑤⑧ |⑥---⑦-|
⑨⑥⑥⑦ |⑧---⑨-|
51
口口口② |①---②-|
③①⑤口 |③-④-⑤-|
⑥④口⑥ |⑥-----|
口口口口 |------|
52
口口③口 |①---②-|
口②⑥⑥ |③-④-⑤-|
④口⑤口 |⑥-----|
口①①口 |------|
53
口①⑤④ |①-②-③-|
①口⑥③ |④-⑤-⑥-|
口④口②
口口口①

口口口⑫
口⑦口⑪
⑦口⑦⑩ |⑦-⑧-⑨-|
口⑩⑧⑨ |⑩-⑪-⑫-|
54
口⑦①口 |①-②-③-|
⑦④②⑦ |④-⑤-⑥-|
口①③⑥ |⑦-----|
①口④⑤ |------|


不確定度: 0

最終更新:2013年03月29日 20:51