闘いの刻 -jubeatREMIX-
マジックアカデミー管弦楽部×劇団レコード

EXTREME

Level: 7
BPM: 174
Notes: 485

1
口口口口 |----|
口口口口 |----|
口口口口 |----|
口①①口 |①---|
2
口口口④ |①-②-|
②口口口 |③---|
①口③⑤ |④---|
口口口口 |⑤---|
3
①口口③ |①---|
口口②口 |--②-|
口口口口 |③---|
口口口口 |----|
4
口口③口 |----|
口口口口 |①---|
口口口口 |②---|
②①口口 |③---|
5
②口口口 |①---|
口口口① |--②-|
口口③口 |③---|
口口口口 |----|
6
口口口③ |----|
口口口口 |①---|
口口②口 |②---|
口口口① |③---|
7
口①②口 |①---|
口口口口 |--②-|
口③口口 |③---|
口口口口 |----|
8
口口①口 |----|
②口口口 |①---|
口口口口 |②---|
口③口口 |③---|
9
口口口口 |①---|
口②口口 |--②-|
④①口④ |③---|
口口口③ |④---|
10
口口①① |①---|
口口③③ |②-③-|
口②口口
口口口口

口⑤⑥口
④⑦口口
口口口口 |④---|
口口口口 |⑤-⑥-⑦-|
11
②④口口 |①---|
口口口口 |②---|
③口①① |③---|
口口④④ |④---|
12
口⑤①① |①---|
口④③③ |②-③-|
口口口口 |④---|
口②口口 |⑤---|
13
①口口口 |①---|
③口口口 |②---|
②口①① |③---|
④口④④ |④---|
14
②口①① |①---|
②口③③ |②-③-|
口口口口
口口口口

口⑤⑥口
口⑦口口
口口口口 |④---|
④④口口 |⑤-⑥-⑦-|
15
④④口口 |①---|
口口口口 |②---|
②③①① |③---|
③②④④ |④---|
16
口⑤①① |①---|
⑤④③③ |②-③-|
②④口口 |④---|
②口口口 |⑤---|
17
口口口口 |①---|
口②口口 |②---|
②口①①
①①口口

③③口口
口口口口
口口口口 |③---|
④④④④ |④---|
18
③口①① |①---|
口⑤②② |②-③-|
⑦口④⑥ |④-⑤-|
口口④⑥ |⑥-⑦-|
19
口口①① |①---|
口④⑦口 |②-③-|
⑥口②⑤ |④-⑤-|
②口③口 |⑥-⑦-|
20
①①口⑤ |①---|
②②口⑦ |②-③-|
⑥④③口 |④-⑤-|
⑥④口口 |⑥-⑦-|
21
①①口口 |①---|
口口口口 |②-③-|
口②口口
口③口②

口⑦口口
⑤口④⑥
口口口口 |④-⑤-|
口口口口 |⑥-⑦-|
22
口口①① |①---|
③⑤⑥④ |②-③-|
口口④② |④-⑤-|
⑦口⑥② |⑥-⑦-|
23
口口⑦① |①---|
口③口⑤ |②-③-|
⑥②口① |④-⑤-|
口口④② |⑥-⑦-|
24
①①口口 |①---|
口②口③ |②-③-|
口口口口
口②口口

⑥口口口
⑥口口口
④口⑦口 |④-⑤-|
④口口⑤ |⑥-⑦-|
25
口②口口 |①---|
口①③② |②-③-|
口①口口
口口口口

口口口口
口口口口
口⑤⑤口 |④---|
口④口口 |⑤---|
26
②③④口 |①---|
①口口① |②---|
口口口口 |③---|
②③④口 |④---|
27
口口口① |①---|
③口口③ |②-③-|
口④④① |④---|
②口口② |----|
28
①口口③ |①---|
口①③② |②-③-|
口口②口
口口口口

⑤口口口
口⑤口口
④口口口 |--④-|
口④口口 |--⑤-|
29
口口口口 |----|
口口①口 |--①②|
口口②口 |③---|
口口③口 |----|
30
口④③② |①---|
①口口① |②---|
口口口口 |③---|
口④③② |④---|
31
①口口口 |①---|
口口口口 |--②-|
①②②口 |③---|
③口口③ |----|
32
②④口③ |①---|
口口口口 |②---|
①口口① |③---|
口③②④ |④---|
33
口口①口 |①---|
⑤③⑦口 |②-③-|
②④口⑥ |④-⑤-|
①口口口 |⑥-⑦-|
34
④③口口 |①-②-|
口口口② |③-④-|
口口①口
口口口口

口口⑤⑥
口⑧⑧口
口⑦⑦口 |⑤-⑥-|
口口口口 |⑦-⑧-|
35
②口③口 |①---|
②⑦⑥⑤ |②-③-|
口④⑥口 |④-⑤-|
口④①① |⑥-⑦-|
36
口口③③ |①-②-|
②⑥⑦口 |③-④-|
口口⑤口 |--⑤-|
④④①① |⑥-⑦-|
37
③口口② |①-②-|
③口口口 |③-④-|
①①④口
口口口口

口口口口
口口⑥口
口⑧口⑦ |⑤-⑥-|
⑤⑤口⑦ |⑦-⑧-|
38
口口①口 |①-②-|
口②⑤① |③-④-|
②⑤③口 |----|
④④③口 |⑤---|
39
④口③① |①---|
②⑥⑤① |②-③-|
④口口⑦ |④-⑤-|
②⑥口口 |⑥-⑦-|
40
口①②口 |①---|
口口口口 |②---|
③①②④ |③---|
口③④口 |④---|
41
口口口口 |①---|
口①①口 |--②-|
口①①口
②口口②

③④口③
口口⑤口
口⑥口口 |③-④-|
口口口口 |⑤-⑥-|
42
④④④③ |①---|
③口④口 |②-③-|
口④口② |--④-|
②④①口 |----|
43
口口口口 |----|
口口口② |①---|
口口①口 |②---|
口口口③ |③---|
44
口口②③ |①---|
⑤口②口 |②-③-|
口⑥口③ |--④-|
①口④口 |⑤-⑥-|
45
③口口口 |①---|
口②口① |②---|
口口口口 |③---|
口④口口 |④---|
46
口③口① |①---|
口口口口 |--②-|
②③口口 |③---|
②口口口 |----|
47
④口口④ |①---|
口①①口 |--②-|
②口口② |③---|
口③③口 |④---|
48
③①①④ |①---|
①③④① |②---|
②④③② |③---|
④②②③ |④---|
49
口②②口 |①---|
①④④① |----|
①口口① |--②-|
口③③口 |③-④-|
50
口口口口 |----|
口口口口 |----|
口口口口 |----|
口口口口 |----|
51
①①口口 |①---|
③③口② |②-③-|
口口口口
口口口②

口⑥⑤口
口口⑦口
口口④口 |④---|
口口④口 |⑤-⑥-⑦-|
52
口口④④ |①---|
口口口口 |②---|
①①③② |③---|
④④②③ |④---|
53
①①口⑤ |①---|
③③②⑤ |②-③-|
口口②④ |④---|
口口口④ |⑤---|
54
口口①③ |①---|
口口①③ |②---|
①①④④ |③---|
④④②② |④---|
55
①①③③ |①---|
口口①口 |②-③-|
②口口口
口口①②

口口口口
口⑤⑤口
口④口⑦ |④---|
⑥④口口 |⑤-⑥-⑦-|
56
①①④④ |①---|
②口③口 |②---|
口③口口 |③---|
④④②口 |④---|
57
①①⑤口 |①---|
④口③③ |②-③-|
②口口② |④---|
④⑤①① |⑤---|
58
①①口口 |①---|
②口口② |②---|
口口口口
口口①①

口口口口
口口口口
③口口③ |③---|
④口口④ |④---|
59
口①①① |①---|
口口口① |----|
口口①口 |----|
口口①口 |----|


不確定度: 0

最終更新:2013年03月29日 20:58