ダイナマイト
→ Pia-no-jaC ←
BASIC
Level: 4
BPM: 125
Notes: 244
全程BPM在125附近飄忽不定
1
口口口口 |----|
口口口口 |----|
口口口口 |----|
口口口口 |----|
2
口口口口 |①---|
口②口口 |----|
口①口口 |②---|
口口口口 |----|
3
口①①口 |①---|
口口口口 |----|
口口口口 |----|
口口口口 |----|
4
口口口口 |①---|
口口②口 |----|
口口①口 |②---|
口口口口 |----|
5
口①①口 |①---|
口口口口 |----|
口口口口 |----|
口口口口 |----|
6
①①②② |①---|
口口口口 |----|
口口口口 |②---|
口口口口 |----|
7
口口口口 |①---|
①①②② |----|
口口口口 |②---|
口口口口 |----|
8
口口口口 |①---|
口口口口 |----|
①①②② |②---|
口口口口 |----|
9
口口口口 |①---|
口口口口 |----|
口口口口 |----|
口①①口 |----|
10
口口口口 |①---|
④③②① |②---|
口口口口 |③---|
口口口口 |④---|
11
口口口口 |①---|
口口口口 |②---|
①②③④ |③---|
口口口口 |④---|
12
口口口口 |①---|
④③②① |②---|
口口口口 |③---|
口口口口 |④---|
13
口口口口 |①---|
口口口口 |②---|
①②③④ |③---|
口口口口 |④---|
14
①①②② |①---|
口口口口 |----|
口口口口 |②---|
口口口口 |----|
15
口口口口 |①---|
①①②② |----|
口口口口 |②---|
口口口口 |----|
16
口口口口 |①---|
口口口口 |----|
①①②② |②---|
口口口口 |----|
17
口口口口 |①---|
口口口口 |----|
口口口口 |----|
口①①口 |----|
18
口口口口 |①---|
④③②① |②---|
口口口口 |③---|
口口口口 |④---|
19
口口口口 |①---|
口口口口 |②---|
①②③④ |③---|
口口口口 |④---|
20
口口口口 |①---|
④③②① |②---|
口口口口 |③---|
口口口口 |④---|
21
口口口口 |①---|
口口口口 |②---|
①②③④ |③---|
口口口口 |④---|
22
口口口口 |①---|
口①①口 |----|
口②口口 |②---|
口③口口 |③---|
23
口口口口 |①---|
口①①口 |----|
口口②口 |②---|
口口③口 |③---|
24
口口口口 |①---|
口①①口 |----|
②口口口 |②---|
③口口口 |③---|
25
口口口口 |①---|
口①①口 |----|
口口口② |②---|
口口口③ |③---|
26
口口口口 |①---|
口①①口 |----|
口②口口 |②---|
口③口口 |③---|
27
口口口口 |①---|
口①①口 |----|
口口②口 |②---|
口口③口 |③---|
28
口口口口 |①---|
口①①口 |----|
②口口口 |②---|
③口口口 |③---|
29
口口口口 |①---|
口①①口 |----|
口口口② |②---|
口口口③ |③---|
30
口口①口 |①---|
口口②口 |----|
口口口口 |②---|
口口口口 |----|
31
口口口口 |①---|
口口口口 |----|
口口①口 |----|
口口口口 |----|
32
口口口口 |①---|
口②口口 |----|
口①口口 |②---|
口口口口 |----|
33
②①口口 |①---|
口口口口 |----|
口口口口 |②---|
口口口口 |----|
34
口口①口 |①---|
口口②口 |----|
口口口口 |②---|
口口口口 |----|
35
口口口口 |①---|
口口口口 |----|
口口①口 |----|
口口口口 |----|
36
口口口口 |①---|
口②口口 |----|
口①口口 |②---|
口口口口 |----|
37
口①②口 |①---|
口③口口 |②---|
口口口口 |③---|
口口口口 |----|
38
口口口口 |①---|
④③②① |②---|
口口口口 |③---|
口口口口 |④---|
39
口口口口 |①---|
口口口口 |②---|
①②③④ |③---|
口口口口 |④---|
40
口口口口 |①---|
④③②① |②---|
口口口口 |③---|
口口口口 |④---|
41
口口口口 |①---|
口口口口 |②---|
①②③④ |③---|
口口口口 |④---|
42
口口口口 |①---|
口口口口 |----|
口口口口 |----|
口①①口 |----|
43
口口口口 |----|
口口口口 |----|
口口口口 |----|
口口口口 |----|
44
口口口口 |①---|
口口口口 |----|
口①①口 |----|
口口口口 |----|
45
口口口口 |----|
口口口口 |----|
口口口口 |----|
口口口口 |----|
46
口口口口 |①---|
口口口口 |----|
口③③口 |②---|
口②②① |③---|
47
口②②口 |①---|
口①①口 |②---|
口④④口 |③---|
口③③口 |④---|
48
口口口口 |①---|
①①①① |----|
口口口口 |----|
口口口口 |----|
49
口口口口 |----|
口口口口 |----|
口口口口 |----|
口口口口 |----|
50
口口口口 |①---|
口口口口 |----|
口口口口 |②---|
口②①口 |----|
51
口口口口 |①---|
口③④口 |②---|
口②①口 |③---|
口口口口 |④---|
52
口④④口 |①---|
口③③口 |②---|
口②②口 |③---|
口①①口 |④---|
53
口④④口 |①---|
口③③口 |②---|
口②②口 |③---|
口①①口 |④---|
54
④④④④ |①---|
③③③③ |②---|
②②②② |③---|
①①①① |④---|
55
口口口口 |①---|
口口口口 |----|
口口口口 |----|
①①①① |----|
56
口口口口 |①---|
④③②① |②---|
口口口口 |③---|
口口口口 |④---|
57
口口口口 |①---|
口口口口 |②---|
①口口口 |③---|
②③④口 |④---|
58
④口口口 |①---|
口③口口 |②---|
口口②口 |③---|
口口口① |④---|
59
口口口口 |①---|
①口口口 |②---|
口②③口 |③---|
口口口④ |④---|
60
①①②② |①---|
③③④④ |②---|
口口口口 |③---|
口口口口 |④---|
61
①①②② |①---|
③③④④ |②---|
口口口口 |③---|
口口口口 |④---|
62
①①②② |①---|
③③④④ |②---|
口口口口 |③---|
口口口口 |④---|
63
①①②② |①---|
③③④④ |②---|
口⑤⑤口 |③---|
口口口口 |④--⑤|
不确定度: 0