ダイナマイト
→ Pia-no-jaC ←

ADVANCED

Level: 7
BPM: 125
Notes: 504

全程BPM在125附近飄忽不定
1
口口口口 |----|
口口口口 |----|
口口口口 |----|
口口口口 |----|
2
口①口口 |①--②|
口口③口 |--③-|
②口口口
口口口口

口⑥口口
口口口⑤
口④口口 |-④--|
口口口口 |⑤-⑥-|
3
口口口② |①---|
口口口口 |--②-|
口口口口 |----|
①口①口 |----|
4
口①口口 |①--②|
口口③口 |--③-|
②口口口
口口口口

口④口口
口口口⑤
口⑥口口 |-④--|
口口口口 |⑤-⑥-|
5
口口口口 |①---|
口口口口 |----|
口口口口 |----|
①口①口 |----|
6
口①口口 |①--②|
口口③口 |--③-|
②口口口
口口口口

口④口口
口口口⑤
口⑥口口 |-④--|
口口口口 |⑤-⑥-|
7
④口口① |①--②|
口口③⑤ |--③-|
②⑥口口 |-④--|
口口口口 |⑤-⑥-|
8
口①口口 |①--②|
口口③口 |--③-|
②口口口
口口口口

口④口口
口口口⑤
口⑥口口 |-④--|
口口口口 |⑤-⑥-|
9
口口口口 |①②-③|
②口⑤口 |-④⑤-|
口口口③ |----|
口④①口 |----|
10
口④口口 |①--②|
口口③⑤ |--③-|
口⑥口口 |-④--|
②口口① |⑤-⑥-|
11
④口口① |①--②|
口口③⑤ |--③-|
②⑥口口 |-④--|
口口口口 |⑤-⑥-|
12
口①口口 |①--②|
口口③口 |--③-|
②口口口
口口口口

口④口口
口口口⑤
口⑥口口 |-④--|
口口口口 |⑤-⑥-|
13
④口口口 |①--②|
口③口⑤ |--③-|
②⑥口口 |-④--|
口口①口 |⑤-⑥-|
14
口④口口 |①--②|
口口③⑤ |--③-|
口⑥口口 |-④--|
②口口① |⑤-⑥-|
15
④口口① |①--②|
口口③⑤ |--③-|
②⑥口口 |-④--|
口口口口 |⑤-⑥-|
16
口①口口 |①--②|
口口③口 |--③-|
②口口口
口口口口

口④口口
口口口⑤
口⑥口口 |-④--|
口口口口 |⑤-⑥-|
17
口口口口 |①②-③|
②⑤口口 |-④⑤-|
口口口③
口④①口

口口口⑥
⑦口口口
口口⑧口 |⑥-⑦-|
口⑨口口 |⑧-⑨-|
18
口④口口 |①--②|
口口③⑤ |--③-|
口⑥口口 |-④--|
②口口① |⑤-⑥-|
19
④口口① |①--②|
口口③⑤ |--③-|
②⑥口口 |-④--|
口口口口 |⑤-⑥-|
20
口①口口 |①--②|
口口③口 |--③-|
②口口口
口口口口

口④口口
口口口⑤
口⑥口口 |-④--|
口口口口 |⑤-⑥-|
21
口口口④ |①--②|
口③⑤口 |--③-|
②口口口 |④⑤-⑥|
⑥口①口 |----|
22
④口口⑥ |①-②-|
口③⑤口 |③-④-|
口口②口 |⑤-⑥-|
⑦口口① |⑦---|
23
④口口⑤ |①-②-|
口③⑥口 |③-④-|
口⑦②口 |⑤-⑥⑦|
口口⑧① |⑧---|
24
④口口⑥ |①-②-|
口③⑤口 |③-④-|
口口②口 |⑤-⑥-|
⑦口口① |⑦---|
25
口口口口 |①-②③|
⑥④⑧⑤ |④-⑤-|
口⑦③口 |⑥-⑦-|
口②口① |⑧---|
26
④口口⑥ |①-②-|
口③⑤口 |③-④-|
口口②口 |⑤-⑥-|
⑦口口① |⑦---|
27
④口口⑤ |①-②-|
口③⑥口 |③-④-|
口⑦②口 |⑤-⑥⑦|
口口⑧① |⑧---|
28
④口口⑥ |①-②-|
口③⑤口 |③-④-|
口口②口 |⑤-⑥-|
⑦口口① |⑦---|
29
口口口口 |①-②③|
⑥④⑧口 |④-⑤-|
口⑦③⑤ |⑥-⑦-|
口②口① |⑧---|
30
口①①口 |①---|
口②②口 |----|
口口口口 |②---|
③口口③ |③---|
31
口口①口 |①---|
口口口口 |----|
口①口口 |----|
口口口口 |----|
32
③口口③ |①---|
口口口口 |----|
口②②口 |②---|
口①①口 |③---|
33
口口①口 |①---|
口①②口 |②---|
口②③口 |③---|
④③口④ |④---|
34
口①①口 |①---|
口②②口 |----|
口口口口 |②---|
③口口③ |③---|
35
口口口口 |①---|
口口口① |----|
①口口口 |----|
口口口口 |----|
36
②②②② |①---|
①①①① |----|
口口口口 |②---|
口口口口 |----|
37
口口口口 |①---|
口口口口 |----|
①①①①
口口口口

口口口口
口②③口
口③②口 |--②-|
口口口口 |-③--|
38
⑩⑫⑪⑨ |①②③④|
⑥⑧⑦⑤ |⑤⑥⑦⑧|
⑭⑯⑮⑬ |⑨⑩⑪⑫|
②④③① |⑬⑭⑮⑯|
39
⑩⑫⑪⑨ |①②③④|
⑥⑧⑦⑤ |⑤⑥⑦⑧|
⑭⑯⑮⑬ |⑨⑩⑪⑫|
②④③① |⑬⑭⑮⑯|
40
⑩⑫⑪⑨ |①②③④|
⑥⑧⑦⑤ |⑤⑥⑦⑧|
⑭⑯⑮⑬ |⑨⑩⑪⑫|
②④③① |⑬⑭⑮⑯|
41
⑩⑫⑪⑨ |①②③④|
⑥⑧⑦⑤ |⑤⑥⑦⑧|
⑭⑯⑮⑬ |⑨⑩⑪⑫|
②④③① |⑬⑭⑮⑯|
42
②口口② |①---|
④③③④ |-②--|
口⑤⑤口 |③-④-|
口口口① |⑤---|
43
口口口口 |----|
口口口口 |----|
口口口口 |----|
口口口口 |----|
44
口口口口 |①②--|
口①②口 |----|
口口口口 |----|
口口口口 |----|
45
口口口口 |----|
口口口口 |----|
口口口口 |----|
口口口口 |----|
46
口④④口 |①②③-|
口口③口 |-④--|
②口口口
口口口①

⑧口口⑧
⑦口⑦口
口⑥口⑥ |⑤-⑥-|
⑤口⑤口 |⑦-⑧-|
47
⑧④④⑧ |①-②-|
⑦③⑦③ |③-④-|
②⑥②⑥ |⑤-⑥-|
⑤①⑤① |⑦-⑧-|
48
口口口口 |①②③④|
口①口④ |----|
③口②口 |----|
口口口口 |----|
49
口口口口 |----|
口口口口 |----|
口口口口 |----|
口口口口 |----|
50
①口②口 |①②③④|
口③口④ |-⑤⑥⑦|
⑤口⑥口 |⑧---|
口⑦口⑧ |----|
51
口⑤口口 |①②-③|
③口⑥④ |-④-⑤|
口⑥②⑥ |----|
口①口口 |⑥---|
52
⑥口口⑥ |①--②|
②⑤⑤② |--③-|
④③③④ |-④--|
口①①口 |⑤-⑥-|
53
⑥口口⑥ |①--②|
②⑤⑤② |--③-|
④③③④ |-④--|
口①①口 |⑤-⑥-|
54
⑥口口⑥ |①--②|
②⑤⑤② |--③-|
④③③④ |-④--|
口①①口 |⑤-⑥-|
55
口①①口 |①---|
口口口口 |----|
口口口口 |----|
口口口口 |----|
56
⑤⑨⑨⑥ |①②③④|
⑩①④⑩ |-⑤⑥⑦|
⑦③②⑧ |⑧-⑨-|
口⑪⑪口 |⑩-⑪-|
57
⑤③④⑤ |①-②-|
口①①口 |③④-⑤|
口②②口
口口口口

口口口口
⑥⑦⑧口
口⑪⑩⑨ |-⑥⑦⑧|
口口口口 |⑨⑩⑪-|
58
⑦①口口 |①②③④|
口口⑥② |⑤⑥⑦⑧|
③口⑧口
口⑤④口

口⑪⑪口
⑫⑭口⑬
口⑨口口 |⑨-⑩-|
⑩口口⑩ |⑪⑫⑬⑭|
59
④⑤口口 |①-②③|
口口①口 |-④⑤-|
口口③②
口口口口

口口口口
⑥⑦⑧⑨
⑩⑪⑫⑬ |⑥⑦⑧⑨|
口口口口 |⑩⑪⑫⑬|
60
⑩⑫⑪⑨ |①②③④|
⑥⑧⑦⑤ |⑤⑥⑦⑧|
⑭⑯⑮⑬ |⑨⑩⑪⑫|
②④③① |⑬⑭⑮⑯|
61
⑩⑫⑪⑨ |①②③④|
⑥⑧⑦⑤ |⑤⑥⑦⑧|
⑭⑯⑮⑬ |⑨⑩⑪⑫|
②④③① |⑬⑭⑮⑯|
62
⑩⑫⑪⑨ |①②③④|
⑥⑧⑦⑤ |⑤⑥⑦⑧|
⑭⑯⑮⑬ |⑨⑩⑪⑫|
②④③① |⑬⑭⑮⑯|
63
⑩⑫⑪⑨ |①②③④|
⑥⑧⑦⑤ |⑤⑥⑦⑧|
⑭⑯⑮⑬ |⑨⑩⑪⑫|
②④③① |⑬⑭⑮⑯|


不确定度: 0

最終更新:2013年01月15日 19:01