シンデレラ
奥華子

BASIC

Level: 2
BPM: 120
Notes: 163

1
口口口口 |----|
口口口口 |----|
口口口口 |----|
口口口口 |----|
2
口口口口 |①---|
口①口口 |----|
口②口口 |②---|
口口口口 |----|
3
口口口口 |①---|
口口②口 |----|
口口①口 |②---|
口口口口 |----|
4
口口口口 |①---|
口①口口 |----|
口②口口 |②---|
口口口口 |----|
5
口口口口 |①---|
口口②口 |----|
口口①口 |②---|
口口口口 |----|
6
口口口口 |①---|
口②②口 |----|
口①①口 |②---|
口口口口 |----|
7
口口口口 |①---|
①口口① |----|
②口口② |②---|
口口口口 |----|
8
口口口口 |①---|
口①①口 |----|
口②②口 |②---|
口口口口 |----|
9
口口口口 |①---|
口口口口 |----|
口口口口 |----|
口①①口 |----|
10
口口口口 |①---|
口①口口 |----|
口②口口 |②---|
口口口口 |----|
11
口口口口 |①---|
口③②① |②---|
口口口口 |③---|
口口口口 |----|
12
口口口口 |①---|
口口①口 |----|
口口②口 |②---|
口口口口 |----|
13
口口口口 |①---|
①②③口 |②---|
口口口口 |③---|
口口口口 |----|
14
口口口口 |①---|
口①口口 |----|
口②口口 |②---|
口口口口 |----|
15
口口口口 |①---|
口③②① |②---|
口口口口 |③---|
口口口口 |----|
16
口口口口 |①---|
口②②口 |----|
口①①口 |②---|
口口口口 |----|
17
口口口口 |①---|
口口口口 |----|
口①①口 |----|
口口口口 |----|
18
口③口口 |①---|
口②口口 |②---|
口①口口 |③---|
口口口口 |----|
19
口口③口 |①---|
口口②口 |②---|
口口①口 |③---|
口口口口 |----|
20
口口口口 |①---|
口①口口 |②---|
口②口口 |③---|
口③口口 |----|
21
口口口口 |①---|
口口①口 |②---|
口口②口 |③---|
口口③口 |----|
22
口口口口 |①---|
①②③口 |②---|
口口口口 |③---|
口口口口 |----|
23
口口口口 |①---|
口口口口 |②---|
口③②① |③---|
口口口口 |----|
24
口口口口 |①---|
口①①口 |----|
口②②口 |②---|
口口口口 |----|
25
口口口口 |①---|
口口口口 |----|
口口口口 |----|
口①①口 |----|
26
口口口口 |①---|
口②②口 |----|
口①口口 |②---|
口口口口 |----|
27
口口口口 |①---|
口②②口 |----|
口口①口 |②---|
口口口口 |----|
28
口口口口 |①---|
口②②口 |----|
口①口口 |②---|
口口口口 |----|
29
口口口口 |①---|
口②②口 |----|
口口①口 |②---|
口口口口 |----|
30
口口口口 |①---|
口②②口 |----|
①口口口 |②---|
口口口口 |----|
31
口口口口 |①---|
口②②口 |----|
口口口① |②---|
口口口口 |----|
32
口口口口 |①---|
口③④口 |②---|
口①②口 |③---|
口口口口 |④---|
33
口口口口 |①---|
口口口口 |②---|
①②④③ |③---|
口口口口 |④---|
34
口口口口 |①---|
口①①口 |----|
口③③口 |②---|
口②②口 |③---|
35
口口口口 |①---|
②①①② |②---|
③④④③ |③---|
口口口口 |④---|
36
口口口口 |①---|
口①①口 |----|
口口口口 |----|
口口口口 |----|
37
③③口口 |①---|
口口②口 |②---|
口①口口 |③---|
口口口口 |----|
38
口口③③ |①---|
口②口口 |②---|
口口①口 |③---|
口口口口 |----|
39
口口口口 |①---|
口②②口 |----|
口①①口 |②---|
口口口口 |----|
40
口①①口 |①---|
口口口口 |----|
口口口口 |----|
口口口口 |----|
41
口口口口 |①---|
口③③口 |②---|
口①②口 |③---|
口口口口 |----|
42
口口口口 |①---|
口③③口 |②---|
口②①口 |③---|
口口口口 |----|
43
口口口口 |①---|
①口口① |----|
②口口② |②---|
口口口口 |----|
44
口口口口 |①---|
口②②口 |----|
口①①口 |②---|
口口口口 |----|
45
③③口口 |①---|
口口②口 |②---|
口①口口 |③---|
口口口口 |----|
46
口口③③ |①---|
口②口口 |②---|
口口①口 |③---|
口口口口 |----|
47
口口口口 |①---|
口②②口 |----|
口①①口 |②---|
口口口口 |----|
48
口①①口 |①---|
口口口口 |----|
口口口口 |----|
口口口口 |----|
49
口口口口 |①---|
口②②口 |----|
口①①口 |②---|
口口口口 |----|
50
口口口口 |①---|
①口口① |----|
②口口② |②---|
口口口口 |----|
51
口口口口 |①---|
口口口口 |----|
口①①口 |----|
口口口口 |----|

不確定度: 0

最終更新:2014年08月01日 02:26