風一揆
風男塾

BASIC

Level: 2
BPM: 140
Notes: 194

1
口口口口 |----|
口口口口 |----|
口口口口 |----|
口口口口 |----|
2
口口口口 |----|
口口口口 |----|
口口口口 |----|
口口口口 |----|
3
口口口口 |----|
口②②口 |----|
口①①口 |①---|
口口口口 |②---|
4
口①口② |①---|
口口口口 |----|
口口口口 |②---|
口口口口 |----|
5
口口口口 |①---|
④口口④ |②---|
①②③口 |③---|
口口口口 |④---|
6
②口①口 |①---|
口口口口 |----|
口口口口 |②---|
口口口口 |----|
7
口口口口 |①---|
④口口④ |②---|
口③②① |③---|
口口口口 |④---|
8
口口口口 |①---|
②口①口 |----|
口口口口 |②---|
口口口口 |----|
9
口口口口 |①---|
口口口口 |②---|
④口口④ |③---|
口③②① |④---|
10
口口口口 |①---|
口①口② |----|
口口口口 |②---|
口口口口 |----|
11
口口口口 |①---|
口口口口 |②---|
④口口④ |③---|
①②③口 |④---|
12
口口口口 |①---|
口①①口 |----|
口口口口 |----|
口口口口 |----|
13
口口口口 |①---|
口口口口 |----|
②①①② |②---|
口口口口 |----|
14
口口口口 |①---|
口①①口 |----|
口口口口 |----|
口口口口 |----|
15
口口口口 |①---|
②口口② |----|
口①①口 |②---|
口口口口 |----|
16
口口口口 |①---|
口①①口 |----|
口口口口 |----|
口口口口 |----|
17
口口口口 |①---|
口口口口 |----|
②①①② |②---|
口口口口 |----|
18
口口口口 |①---|
口①①口 |----|
口口口口 |----|
口口口口 |----|
19
口口口口 |①---|
②口口② |----|
口①①口 |②---|
口口口口 |----|
20
口口口口 |①---|
口口②口 |----|
口口①口 |②---|
口口口口 |----|
21
②③①口 |①---|
口口口口 |----|
口口口口 |②---|
口口口口 |③---|
22
口口口口 |①---|
口②口口 |----|
口①口口 |②---|
口口口口 |----|
23
口①③② |①---|
口口口口 |----|
口口口口 |②---|
口口口口 |③---|
24
口口口口 |①---|
口口②口 |----|
口口①口 |②---|
口口口口 |----|
25
②③①口 |①---|
口口口口 |----|
口口口口 |②---|
口口口口 |③---|
26
口口口口 |①---|
口②口口 |----|
口①口口 |②---|
口口口口 |----|
27
④③②① |①---②-|
口口口口 |--③---|
口口口口 |④---|
口口口口 |----|
28
口口口口 |①---|
口口②口 |----|
口口①口 |②---|
口口口口 |----|
29
②③①口 |①---|
口口口口 |----|
口口口口 |②---|
口口口口 |③---|
30
口口口口 |①---|
口②口口 |----|
口①口口 |②---|
口口口口 |----|
31
口①③② |①---|
口口口口 |----|
口口口口 |②---|
口口口口 |③---|
32
口口口口 |①---|
口口②口 |----|
口口①口 |②---|
口口口口 |----|
33
②③①口 |①---|
口口口口 |----|
口口口口 |②---|
口口口口 |③---|
34
口口口口 |①---|
口②口口 |----|
口①口口 |②---|
口口口口 |----|
35
④③②① |①---②-|
口口口口 |--③---|
口口口口 |④---|
口口口口 |----|
36
口口①口 |----|
口口②口 |①---|
口口③口 |②---|
口口口口 |③---|
37
口②口口 |①---|
口③口口 |②---|
口④口口 |③---|
口口①口 |④---|
38
口口口口 |①---|
口口口口 |----|
口口口口 |----|
口①口口 |----|
39
口口口口 |----|
口口口口 |----|
口口口口 |----|
口口口口 |----|
40
口①口口 |----|
口②口口 |①---|
口③口口 |②---|
口口口口 |③---|
41
口口②口 |①---|
口口③口 |②---|
口口④口 |③---|
口①口口 |④---|
42
口口口口 |①---|
口口口口 |----|
口口口口 |----|
口口①口 |----|
43
口口口口 |①---|
口②②口 |----|
口①①口 |②---|
口口口口 |----|
44
口①口口 |①---|
口口②口 |----|
口口口口 |②---|
口口口口 |----|
45
口口口口 |①---|
④口口④ |②---|
①②③口 |③---|
口口口口 |④---|
46
口口①口 |①---|
口②口口 |----|
口口口口 |②---|
口口口口 |----|
47
口口口口 |①---|
④口口④ |②---|
口③②① |③---|
口口口口 |④---|
48
①口口② |①---|
口口口口 |----|
口口口口 |②---|
口口口口 |----|
49
口口口口 |①---|
④口口④ |②---|
①②③口 |③---|
口口口口 |④---|
50
②口口① |①---|
口口口口 |----|
口口口口 |②---|
口口口口 |----|
51
口口口口 |①---|
④口口④ |②---|
口③②① |③---|
口口口口 |④---|
52
口①②口 |①---|
口③④口 |②---|
口口口口 |③---|
口口口口 |④---|
53
口口口口 |①---|
④口口④ |②---|
口①①口 |③---|
③②②③ |④---|
54
口②①口 |①---|
口④③口 |②---|
口口口口 |③---|
口口口口 |④---|
55
口口口口 |①---|
④口口④ |②---|
口①①口 |③---|
③②②③ |④---|
56
口①③口 |①---|
口②④口 |②---|
口口口口 |③---|
口口口口 |④---|
57
口口口口 |①---|
④口口④ |②---|
口①①口 |③---|
③②②③ |④---|
58
口③①口 |①---|
口④②口 |②---|
口口口口 |③---|
口口口口 |④---|
59
口口口口 |①---|
④口口④ |②---|
口①①口 |③---|
③②②③ |④---|

不確定度: 0

最終更新:2014年08月01日 02:41