HEAT-BIT-HIT-BEAT
V.C.O.

BASIC

Level: 5
BPM: 180
Notes: 380

1
口口口口 |----|
口口口口 |----|
口口口口 |----|
口口口口 |----|
2
口口口口 |----|
口口口口 |----|
口口口口 |----|
口口口口
3
口口口口 |①---|
①③③② |----|
口口口口 |②---|
口口口口 |--③-|
4
口口口口 |----|
口口口口 |①---|
口②②口 |②---|
口①①口
5
口口口口 |①---|
①③③② |----|
口口口口 |②---|
口口口口 |--③-|
6
口口口口 |----|
口口口口 |①---|
口②②口 |②---|
口①①口
7
①③③② |①---|
口口口口 |----|
口口口口 |②---|
口口口口 |--③-|
8
口口口口 |----|
口②②口 |①---|
口①①口 |②---|
口口口口
9
口口口口 |①---|
①③③② |----|
口口口口 |②---|
口口口口 |--③-|
10
口口口口 |----|
口口口口 |①---|
口②②口 |②---|
口①①口
11
口口口口 |①---|
①③③② |----|
口口口口 |②---|
口口口口 |--③-|
12
口口口口 |----|
口口口口 |①---|
口②②口 |②---|
口①①口
13
口口口口 |①---|
①③③② |----|
口口口口 |②---|
口口口口 |--③-|
14
口口口口 |----|
口口口口 |①---|
口②②口 |②---|
口①①口
15
①③③② |①---|
口口口口 |----|
口口口口 |②---|
口口口口 |--③-|
16
口口口口 |----|
口②②口 |①---|
口①①口 |②---|
口口口口
17
口口口口 |①---|
①口口② |----|
口口口口 |②---|
口口口口 |----|
18
口口口口 |①---|
口口口口 |----|
口①口口 |----|
口口口口
19
口口口口 |①---|
④口口② |②---|
③口口① |③---|
口口口口 |④---|
20
口口口口 |①---|
口①①口 |②---|
口②②口 |③---|
口③③口
21
口口口口 |①---|
④口口② |②---|
③口口① |③---|
口口口口 |④---|
22
口口口口 |①---|
口①①口 |②---|
口②②口 |③---|
口③③口
23
②②①① |①---|
口口口口 |----|
口口口口 |②---|
口口口口 |----|
24
口口口口 |①---|
口口口口 |----|
口①①口 |----|
口①①口
25
口口口口 |①---|
②②①① |----|
口口口口 |②---|
口口口口 |----|
26
口口口口 |①---|
口口口口 |----|
口口口口 |----|
①①①①
27
口口口口 |①---|
④口口② |②---|
③口口① |③---|
口口口口 |④---|
28
口口口口 |①---|
口①①口 |②---|
口②②口 |③---|
口③③口
29
口口口口 |①---|
④口口② |②---|
③口口① |③---|
口口口口 |④---|
30
口口口口 |①---|
口①①口 |②---|
口②②口 |③---|
口③③口
31
②②①① |①---|
口口口口 |----|
口口口口 |②---|
口口口口 |----|
32
口口口口 |①---|
①①①① |----|
口口口口 |----|
口口口口
33
口口口口 |①---|
口口口口 |----|
口口口口 |②---|
②②①① |----|
34
口口口口 |①---|
口①①口 |----|
口①①口 |----|
口口口口
35
口口口口 |①---|
口口口口 |----|
口口口口 |----|
口口口① |----|
36
口口口口 |----|
口口口口 |----|
口口口口 |----|
口口口口
37
口口口口 |①---|
口口口口 |----|
口口①① |----|
口口口口 |----|
38
口口口口 |----|
口口口口 |----|
口口口口 |----|
口口口口
39
口口口口 |①---|
口①①① |----|
口口口口 |----|
口口口口 |----|
40
口口口口 |----|
口口口口 |----|
口口口口 |----|
口口口口
41
①①①① |①---|
口口口口 |----|
口口口口 |----|
口口口口 |----|
42
口口口口 |----|
口口口口 |----|
口口口口 |----|
口口口口
43
口口口④ |①---|
口口口③ |②---|
口口口② |③---|
口口口① |④---|
44
③口口口 |①---|
②口口口 |②---|
①口口口 |③---|
口口口口
45
口口口④ |①---|
口口口③ |②---|
口口口② |③---|
口口①① |④---|
46
③口口口 |①---|
②口口口 |②---|
①口口口 |③---|
口口口口
47
口口口④ |①---|
口口口③ |②---|
口口口② |③---|
口①①① |④---|
48
③口口口 |①---|
②口口口 |②---|
①口口口 |③---|
口口口口
49
口口口④ |①---|
口口口③ |②---|
口口口② |③---|
①①①① |④---|
50
口口口口 |①---|
②口口口 |②---|
①口口口 |----|
口口口口
51
口口①① |①---|
②②口口 |----|
口口口口 |②---|
口口口口 |----|
52
口口①① |①---|
口口③③ |②---|
口口②② |③---|
口口口口
53
口口口口 |①---|
口口口口 |----|
口口②② |②---|
口口①① |----|
54
口口口口 |①---|
①①口口 |②---|
③③口口 |③---|
②②口口
55
①①口口 |①---|
②②口口 |----|
口口口口 |②---|
口口口口 |----|
56
口口①① |①---|
口口③③ |②---|
口口②② |③---|
口口口口
57
口口口口 |①---|
口口口口 |----|
口口②② |②---|
口口①① |----|
58
口口口口 |①---|
①①口口 |②---|
③③口口 |③---|
②②口口
59
口口①① |①---|
口口②② |----|
口口口口 |②---|
口口口口 |----|
60
①①口口 |①---|
③③口口 |②---|
②②口口 |③---|
口口口口
61
口口口口 |①---|
口口口口 |----|
②②口口 |②---|
①①口口 |----|
62
口口口口 |①---|
口口①① |②---|
口口③③ |③---|
口口②②
63
口口①① |①---|
口口②② |----|
口口口口 |②---|
口口口口 |----|
64
①①口口 |①---|
③③口口 |②---|
②②口口 |③---|
口口口口
65
口口口口 |①---|
口口口口 |----|
②②口口 |②---|
①①口口 |----|
66
口口口口 |①---|
口口①① |②---|
口口③③ |③---|
口口②②
67
口口口口 |①---|
口口口口 |----|
口口口口 |----|
①①口口 |----|
68
口口口口 |----|
口口口口 |----|
口口口口 |----|
口口口口
69
口口口口 |----|
口口口口 |----|
口口口口 |----|
口口口口 |----|
70
口口口口 |----|
口口口口 |----|
口口口口 |----|
口口口口
71
口口口口 |①---|
口①①口 |----|
口①①口 |----|
口口口口 |----|
72
口口口口 |----|
口口口口 |----|
口口口口 |----|
口口口口
73
口口口口 |----|
口口口口 |----|
口口口口 |----|
口口口口 |----|
74
口口口口 |----|
口口口口 |----|
口口口口 |----|
口口口口
75
⑤口口① |①---|
口口②口 |②---|
口③④口 |③-④-|
口口口口 |--⑤-|
76
口口口口 |--①-|
口①口口 |--②-|
口口口口 |③---|
口③②口
77
⑤口口① |①---|
口口②口 |②---|
口③④口 |③-④-|
口口口口 |--⑤-|
78
口口口口 |--①-|
口①口口 |--②-|
口口口口 |③---|
口③②口
79
②②口口 |①---|
口口③③ |②---|
①①口口 |--③-|
口口口口 |----|
80
口口口口 |--①-|
①①口口 |----|
口口②② |②---|
口口口口
81
口口①① |----|
口口口口 |①---|
②②口口 |--②-|
口口口口 |----|
82
口口口口 |--①-|
①①口口 |----|
口口口口 |②---|
口口②②
83
口口口口 |----|
口口①① |①---|
②②口口 |--②-|
口口口口 |----|
84
口口口口 |--①-|
①①口口 |----|
口口口口 |②---|
口口②②
85
口口①① |----|
口口口口 |①---|
②②口口 |--②-|
口口口口 |----|
86
口口口口 |--①-|
①①口口 |----|
口口口口 |②---|
口口②②
87
⑤口口① |①---|
口口②口 |②---|
口③④口 |③-④-|
口口口口 |--⑤-|
88
口口口口 |--①-|
口①口口 |--②-|
口口口口 |③---|
口③②口
89
⑤口口① |①---|
口口②口 |②---|
口③④口 |③-④-|
口口口口 |--⑤-|
90
口口口口 |--①-|
口①口口 |--②-|
口口口口 |③---|
口③②口
91
②②口口 |①---|
口口③③ |②---|
①①口口 |--③-|
口口口口 |----|
92
口口口口 |--①-|
①①口口 |----|
口口②② |②---|
口口口口
93
口口①① |----|
口口口口 |①---|
②②口口 |--②-|
口口口口 |----|
94
口口口口 |--①-|
①①口口 |----|
口口口口 |②---|
口口②②
95
口口口口 |----|
口口①① |①---|
②②口口 |--②-|
口口口口 |----|
96
口口口口 |--①-|
①①口口 |----|
口口口口 |②---|
口口②②
97
口口①① |----|
口口口口 |①---|
②②口口 |--②-|
口口口口 |----|
98
口口②② |--①-|
口口③③ |----|
口口口口 |②-③-|
①①口口
99
②②口口 |①---|
③③口口 |②-③-|
④④①① |④---|
⑤⑤口口 |⑤---|
100
口②②口 |①---|
口③③口 |②---|
口③③口 |③---|
口口①①


不確定度: 0

タグ:

+ タグ編集
  • タグ:

このサイトはreCAPTCHAによって保護されており、Googleの プライバシーポリシー利用規約 が適用されます。

最終更新:2013年03月29日 20:30