風一揆
風男塾

ADVANCED

Level: 6
BPM: 140
Notes: 457

1
口口口口 |----|
口口口口 |----|
口口口口 |----|
口口口口 |----|
2
口口口口 |①---|
口口口口 |----|
口②①口 |②---|
口口口口 |----|
3
口口口口 |①---|
口①①口 |----|
③口口③ |②---|
②口口② |③---|
4
②①②① |①---|
④③④③ |②---|
口口口口 |③---|
口口口口 |④---|
5
口口口口 |①---|
④②④口 |②---|
③口③口 |③---|
口口口① |④---|
6
①②①② |①---|
③④③④ |②---|
口口口口 |③---|
口口口口 |④---|
7
口口口口 |①---|
口④②④ |②---|
口③口③ |③---|
①口口口 |④---|
8
②①②① |①---|
④③④③ |②---|
口口口口 |③---|
口口口口 |④---|
9
口口口口 |①---|
④②④口 |②---|
③口③口 |③---|
口口口① |④---|
10
①②①② |①---|
③④③④ |②---|
口口口口 |③---|
口口口口 |④---|
11
口口口口 |①---|
口④②④ |②---|
口③口③ |③---|
①口口口 |④---|
12
口④④口 |①---|
①口②口 |②---③-|
①③②口 |----|
口口口口 |④---|
13
②口口④ |①---|
②口口④ |②---|
口③③口 |③---|
口①①口 |④---|
14
口④④口 |①---|
①口②口 |②---③-|
①③②口 |----|
口口口口 |④---|
15
②口口③ |①---|
②口口③ |②---|
口④④口 |③---|
口①①口 |④---|
16
①①②② |①---|
口④④口 |②---③-|
口③③口 |----|
口口口口 |④---|
17
②口口④ |①---|
口口口口 |②---|
②③③④ |③---|
口①①口 |④---|
18
口①②口 |①---|
①④④② |②---③-|
口③③口 |----|
口口口口 |----④-|
19
②口口② |----|
口③③口 |①---|
①口口① |②---|
口口口口 |③---|
20
①①口② |----|
③③口④ |①---②-|
⑤⑤口⑥ |③---④-|
口口口口 |⑤---⑥-|
21
⑤⑤口口 |①---②-|
③③口④ |③---④-|
⑥⑥口口 |⑤---|
①①口② |⑥---|
22
②口①① |----|
④口③③ |①---②-|
⑥口⑤⑤ |③---④-|
口口口口 |⑤---⑥-|
23
口口⑤⑤ |①---②-|
④口③③ |③---④-|
口口⑥⑥ |⑤---|
②口①① |⑥---|
24
口口口口 |----|
⑤⑤口⑥ |①---②-|
③③口④ |③---④-|
①①口② |⑤---⑥-|
25
①①口② |①---②-|
⑤⑤口口 |③---④-|
③③口④ |⑤---|
⑥⑥口口 |⑥---|
26
①③④② |----|
①③④② |①---②-|
⑤口口⑥ |③---④-|
⑤口口⑥ |⑤---⑥-|
27
①③④② |①---②-|
①③④② |--③---|
口口口口 |④---|
口口口口 |----|
28
①①口② |----|
③③口④ |①---②-|
⑤⑤口⑥ |③---④-|
口口口口 |⑤---⑥-|
29
⑤⑤口口 |①---②-|
③③口④ |③---④-|
⑥⑥口口 |⑤---|
①①口② |⑥---|
30
②口①① |----|
④口③③ |①---②-|
⑥口⑤⑤ |③---④-|
口口口口 |⑤---⑥-|
31
②④⑤③ |①---②-|
口⑥口口 |③-④-⑤-|
口⑦⑦口 |⑥---|
口口①① |⑦---|
32
口口口口 |----|
⑤⑤口⑥ |①---②-|
③③口④ |③---④-|
①①口② |⑤---⑥-|
33
①①口② |①---②-|
⑤⑤口口 |③---④-|
③③口④ |⑤---|
⑥⑥口口 |⑥---|
34
①③④② |----|
①③④② |①---②-|
⑤口口⑥ |③---④-|
⑤口口⑥ |⑤---⑥-|
35
①③④② |①---②-|
①③④② |--③---|
口口口口 |④---|
口口口口 |----|
36
①①口口 |----|
口④③③ |①---|
②②①口 |②---|
口口口口 |③---④-|
37
口口①口 |①---|
④⑥⑤③ |②---|
②②口口 |③---④-|
口口口口 |⑤---⑥-|
38
②①①② |----①-|
口口口口 |②---|
③口口③ |③---|
④口口④ |④---|
39
①口口① |----|
口口口口 |①---|
②口口② |②---|
③口口③ |③---|
40
①①口口 |----|
口口③③ |①---|
②②①口 |②---|
口口口口 |③---|
41
口①①口 |①---|
口口口口 |②---|
②②口口
口口口口

口口⑤⑤
口口③③
口口口口 |③---|
④④口口 |④---⑤-|
42
口口口口 |----|
口口口口 |----|
口口口口 |----|
口①口口 |----①-|
43
②②口口 |①---|
口口②② |----|
口口①口 |②---|
口口口口 |----|
44
口③③① |①---|
口⑤⑤② |②---|
②口口口 |③---|
①④④口 |④---⑤-|
45
口⑤⑤口 |①---②-|
①口口① |③---|
③②②③ |④---|
口④④口 |⑤---|
46
口口③① |①---|
口口口口 |②---|
口口口口 |③---|
口口④② |④---|
47
口口口口 |①---②-|
①⑤⑤② |③---|
③⑤⑤④ |④---|
口口口口 |⑤---|
48
①③①③ |①---|
口口口口 |②---|
口口口口 |③---|
④②④② |④---|
49
口口口口 |①---②-|
⑤③④⑤ |③---|
⑤①②⑤ |④---|
口口口口 |⑤---|
50
①③①③ |①---|
口口口口 |②---|
口口口口 |③---|
④②④② |④---|
51
口口口口 |①---②-|
⑤③④⑤ |③---|
⑤①②⑤ |④---|
口口口口 |⑤---|
52
①③③② |①---|
口⑤⑤口 |②---|
口口口口 |③---|
②④④① |④---⑤-|
53
口⑤⑤口 |①---②-|
①口口① |③---|
③②②③ |④---|
口④④口 |⑤---|
54
①③口口 |①---|
口口口口 |②---|
口口口口 |③---|
②④口口 |④---|
55
口口口口 |①---②-|
②⑤⑤① |③---|
④⑤⑤③ |④---|
口口口口 |⑤---|
56
③①③① |①---|
口口口口 |②---|
口口口口 |③---|
②④②④ |④---|
57
口口口口 |①---②-|
⑤④③⑤ |③---|
⑤②①⑤ |④---|
口口口口 |⑤---|
58
③①③① |①---|
口口口口 |②---|
口口口口 |③---|
②④②④ |④---|
59
口口口口 |①---②-|
⑤④③⑤ |③---|
⑤②①⑤ |④---|
口口口口 |⑤---|

不確定度: 0

最終更新:2014年08月01日 02:41