記憶の欠片
Sana

BASIC

Level: 4
BPM: 153
Notes: 203

1
口口口口 |----|
口口口口 |----|
口口口口 |----|
口口口口 |----|
2
口口口口 |①---|
口①②口 |----|
口①②口 |②---|
口口口口 |----|
3
口口口口 |①---|
②口口① |----|
①口口② |②---|
口口口口 |----|
4
①口口① |①---|
口口口口 |----|
口②口口 |②---|
口口口口 |----|
5
口口口口 |①---|
口口口口 |----|
①口②口 |②---|
口口口口 |----|
6
口口口口 |①---|
口②①口 |----|
口口口口 |②---|
口口口口 |----|
7
口③③口 |①---|
口②②① |----|
口口口口 |②---|
口口口口 |③---|
8
口口口口 |①---|
口口口口 |----|
②①口口 |②---|
口口口口 |----|
9
口口口口 |①---|
口口口口 |----|
口②①口 |②---|
口口口口 |----|
10
口口口口 |①---|
口①口② |----|
口口口口 |②---|
口口口口 |----|
11
口①①口 |①---|
口口口口 |----|
口口口口 |----|
口口口口 |----|
12
口口口口 |①---|
口②口口 |----|
口口口口 |②---|
口①①口 |----|
13
口②口口 |①---|
口口③口 |----|
口口①口 |②---|
口口口口 |③---|
14
口口口口 |①---|
口口口口 |----|
③①口口 |②---|
口口②口 |③---|
15
口口①口 |①---|
口②口口 |----|
口口口口 |②---|
口口口口 |----|
16
口口口口 |①---|
②口口口 |----|
口口①口 |②---|
口口口口 |----|
17
口口①口 |①---|
口口口口 |----|
口②口口 |②---|
口口口口 |----|
18
口口口口 |----|
③口口① |①---|
口②口口 |②---|
口口口口 |③---|
19
口①①口 |①---|
口②②口 |----|
口口口口 |②---|
口口口口 |----|
20
口口口口 |----|
口口①口 |----|
口②口口 |①---|
口口口口 |②---|
21
口口②口 |①---|
口口口口 |②---|
口口口口 |----|
口口①口 |----|
22
口口口口 |①---|
口①口口 |----|
口口口② |②---|
口口口口 |----|
23
口①口口 |①---|
口口②口 |----|
口口口口 |②---|
口口口口 |----|
24
口口口口 |①---|
口口②② |----|
①①口口 |②---|
口口口口 |----|
25
口①口口 |①---|
口①口口 |----|
口口②口 |②---|
口口②口 |----|
26
口口口口 |----|
口②口口 |----|
口口①口 |①---|
口口口口 |②---|
27
口①①口 |①---|
②口口② |----|
口口口口 |②---|
口口口口 |----|
28
口口口口 |----|
口③口口 |①---|
口②口口 |②---|
口口①口 |③---|
29
口①口口 |①---|
口②②口 |----|
口口口口 |②---|
口口口口 |----|
30
口口口口 |----|
口口②口 |----|
口口①口 |①---|
口口口口 |②---|
31
口口①口 |①---|
口口口口 |②---|
口②②口 |----|
口口口口 |----|
32
口口口口 |----|
口③口口 |①---|
口②口口 |②---|
口口①口 |③---|
33
口①口口 |①---|
口口口口 |②---|
口②②口 |----|
口口口口 |----|
34
口口口口 |①---|
口口②② |----|
口①口口 |②---|
口口口口 |----|
35
口口口口 |①---|
②②口口 |----|
口口①口 |②---|
口口口口 |----|
36
①口口① |①---|
口口口口 |----|
口②②口 |②---|
口口口口 |----|
37
口②口口 |①---|
①口③① |----|
口口口口 |②---|
口口口口 |③---|
38
口口口口 |①---|
口③口④ |②---|
口①口口 |③---|
口口②口 |④---|
39
口口口口 |①---|
①③②④ |②---|
口口口口 |③---|
口口口口 |④---|
40
口口口口 |①---|
口口口② |----|
①口口口 |----|
口口口口 |②---|
41
②口口② |①---|
口口口口 |----|
口①①口 |②---|
口口口口 |----|
42
口口口口 |①---|
口②口④ |②---|
①口③口 |③---|
口口口口 |④---|
43
口口口口 |①---|
①③②④ |②---|
口口口口 |③---|
口口口口 |④---|
44
①口口口 |①---|
口口口口 |----|
口口②口 |----|
口口口口 |②---|
45
口①①口 |①---|
②口口② |----|
口口口口 |②---|
口口口口 |----|
46
口口①口 |①---|
口②口口 |②---|
口口③口 |③---|
口④口口 |④---|
47
口口口口 |①---|
④②③① |②---|
口口口口 |③---|
口口口口 |④---|
48
口②口口 |①---|
口口口口 |----|
口①口口 |----|
口口口口 |②---|
49
②口口② |①---|
口口口口 |----|
口①①口 |②---|
口口口口 |----|
50
口口口口 |①---|
④口②口 |②---|
口③口① |③---|
口口口口 |④---|
51
口口口口 |①---|
④②③① |②---|
口口口口 |③---|
口口口口 |④---|
52
口口①口 |①---|
口口口口 |----|
口②口口 |----|
口口口口 |②---|
53
口①①口 |①---|
口口口口 |----|
口口②口 |----|
口口口口 |②---|
54
口口口口 |①---|
口①①口 |----|
②口口口 |②---|
口口口口 |----|
55
口口口口 |①---|
口口口口 |----|
口①口口 |----|
口口口口 |----|
56
①口口口 |----|
①口口口 |①---|
口口口② |②---|
口口口② |----|
57
口口口口 |①---|
口①①口 |----|
口①①口 |----|
口口口口 |----|
58
口口口口 |①---|
口口口口 |----|
口口②口 |②---|
口①口口 |----|
59
口口口口 |①---|
口①口口 |----|
口口口口
口口口口

口口②口
口③口口
口口口口 |②---|
口口口口 |③---|
60
口口口口 |①---|
口口口口 |----|
②①①② |②---|
口口口口 |----|
61
口口口口 |①---|
②①①② |----|
口口口口 |②---|
口口口口 |----|
62
口①①口 |①---|
口口口口 |----|
口口口口 |----|
口口口口 |----|
63
口口口口 |----|
口口口口 |----|
口口口口 |----|
口口口口 |----|
64
口口口口 |①---|
口②①口 |----|
口口口口 |②---|
口口口口 |----|
65
口③③口 |①---|
口②②① |----|
口口口口 |②---|
口口口口 |③---|
66
口口口口 |①---|
口口口口 |----|
②①口口 |②---|
口口口口 |----|
67
口口口口 |①---|
口口②口 |----|
口口①口 |②---|
口口口口 |----|
68
口口口口 |①---|
口①口② |----|
口口口口 |②---|
口口口口 |----|
69
口①①口 |①---|
口口口口 |----|
口②口口 |②---|
口口口口 |----|
70
口口口口 |①---|
口口口口 |----|
①口②口 |②---|
口口口口 |----|


不確定度: 0

最終更新:2013年02月26日 21:41